[超人前传/Smallville 第一至五季][全05集打包][英语英字][MKV][1080P][片源] 合集 美国 科幻 打包



◎译  名 超人前传

◎片  名 Smallville 

◎年  代 2001

◎产  地 美国

◎类  别 剧情 / 科幻 / 冒险

◎语  言 英语

◎上映日期 2001-10-16(美国)

◎IMDb评分 7.5/10 from 107199 users

◎IMDb链接 http://www.imdb.com/title/tt0279600

◎豆瓣评分 7.7/10 from 3123 users

◎豆瓣链接 https://movie.douban.com/subject/1401376/

◎BT之家整理 http://www.51btbtt.com/

◎片  长 50分钟

◎导  演 Alfred Gough

◎主  演 汤姆·威灵 Tom Welling

      克斯汀·克鲁克 Kristin Kreuk

      迈克尔·罗森巴姆 Michael Rosenbaum

      埃里克·约翰逊 Eric Johnson

      小山姆·琼斯 Sam Jones III

      艾莉森·麦克 Allison Mack

      安妮特·奥图 Annette O'Toole

      约翰·施奈德 John Schneider

      艾米·亚当斯 Amy Adams




◎简  介  


  1989年10月Smallville发生的一场流星雨,彻底改变了这个平凡小镇的命运。超人降落在这里并由肯特夫妇收养。10多年后,年轻的超人克拉克肯特,在成长过程中,渐渐认识到了自己的宿命。你在看这部剧集的时候,可以当它是克拉克和拉娜的爱情马拉松,就象一个校园青春剧,使得超人在我们心里只是一个普通人一样,他不再是无坚不摧,而只是一个情窦初开的高中生。


Video
ID : 2
Format : AVC
Format/Info : Advanced Video Codec
Format profile : High@L4
Format settings : CABAC / 4 Ref Frames
Format settings, CABAC : Yes
Format settings, ReFrames : 4 frames
Codec ID : V_MPEG4/ISO/AVC
Duration : 43 min 19 s
Bit rate mode : Variable
Bit rate : 14.3 Mb/s
Maximum bit rate : 15.0 Mb/s
Width : 1 920 pixels
Height : 1 080 pixels
Display aspect ratio : 16:9
Frame rate mode : Constant
Frame rate : 23.976 (24000/1001) FPS
Color space : YUV
Chroma subsampling : 4:2:0
Bit depth : 8 bits
Scan type : Progressive
Bits/(Pixel*Frame) : 0.287
Stream size : 4.32 GiB (98%)
Writing library : x264 core 148 r2623 d5b2374
Encoding settings : cabac=1 / ref=4 / deblock=1:-1:-1 / analyse=0x3:0x133 / me=umh / subme=9 / psy=1 / psy_rd=1.00:0.15 / mixed_ref=1 / me_range=24 / chroma_me=1 / trellis=2 / 8x8dct=1 / cqm=0 / deadzone=21,11 / fast_pskip=1 / chroma_qp_offset=-3 / threads=34 / lookahead_threads=5 / sliced_threads=0 / nr=150 / decimate=1 / interlaced=0 / bluray_compat=0 / constrained_intra=0 / bframes=8 / b_pyramid=2 / b_adapt=2 / b_bias=0 / direct=3 / weightb=1 / open_gop=0 / weightp=2 / keyint=120 / keyint_min=61 / scenecut=0 / intra_refresh=0 / rc_lookahead=120 / rc=crf / mbtree=1 / crf=18.0 / qcomp=0.60 / qpmin=0 / qpmax=69 / qpstep=4 / vbv_maxrate=15000 / vbv_bufsize=31250 / crf_max=0.0 / nal_hrd=vbr / filler=0 / ip_ratio=1.40 / aq=3:1.00
Default : Yes
Forced : No
Color range : Limited
Color primaries : BT.709
Transfer characteristics : BT.709
Matrix coefficients : BT.709

Audio
ID : 1
Format : E-AC-3
Format/Info : Enhanced AC-3
Commercial name : Dolby Digital Plus
Codec ID : A_EAC3
Duration : 43 min 19 s
Bit rate mode : Constant
Bit rate : 224 kb/s
Channel(s) : 2 channels
Channel layout : L R
Sampling rate : 48.0 kHz
Frame rate : 31.250 FPS (1536 SPF)
Compression mode : Lossy
Stream size : 69.4 MiB (2%)
Language : English
Service kind : Complete Main
Default : Yes
Forced : No

Text
ID : 3
Format : UTF-8
Codec ID : S_TEXT/UTF8
Codec ID/Info : UTF-8 Plain Text
Duration : 42 min 21 s
Bit rate : 53 b/s
Count of elements : 568
Stream size : 16.5 KiB (0%)
Default : Yes
Forced : No


后面季待添加


磁力下载:magnet:?xt=urn:btih:F664E34A79E691332F545DECDC8105DFE475468B
Smallville.S01.1080p.AMZN.WEBRip.DDP2.0.x264-Oki.torrent
磁力下载:magnet:?xt=urn:btih:DC291273BBB467BDA632875F54E4CF2F74FC8E6C
Smallville.S02.1080p.AMZN.WEBRip.DDP2.0.x264-Oki.torrent
磁力下载:magnet:?xt=urn:btih:7A366B65C2E0074D6CD66A01C9884348AC26ECFA
Smallville.S03.1080p.AMZN.WEBRip.DDP2.0.x264-Oki.torrent
磁力下载:magnet:?xt=urn:btih:600D14B7643474D27385EB86EB01EC981B80D576
Smallville.S04.1080p.AMZN.WEBRip.DDP2.0.x264-Oki.torrent
磁力下载:magnet:?xt=urn:btih:E0BB00CABA252D4F1C59C8D64603A58B6E1A3D41
Smallville.S05.1080p.AMZN.WEBRip.DDP2.0.x264-Oki.torrent
还没有人收藏过本帖~
最新回复 (0)
全部楼主

你可以在 登录 or 注册 后,对此帖发表评论!

返回