[危机四伏/Sleeper Cell 第一季][全10集打包][英语英字][MKV][1080P][片源] 更早 美国 动作 打包


◎译  名 危机四伏 第一季/危机四伏

◎片  名 Sleeper Cell Season 1

◎年  代 2005

◎产  地 美国

◎类  别 剧情/动作/悬疑

◎语  言 英语

◎上映日期 2005-12-04

◎IMDb评分  8.1/10 from 5,331 users

◎IMDb链接  http://www.imdb.com/title/tt0465353/

◎豆瓣评分 8.8/10 from 58 users

◎豆瓣链接 https://movie.douban.com/subject/1459671/

◎集  数 10

◎片  长 60分钟

◎导  演 尼克·戈麦斯 Nick Gomez

◎主  演 迈克尔·伊雷 Michael Ealy

      奥德·菲尔 Oded Fehr

      Alex Nesic


◎简  介


  Darwyn,作为一位FBI卧底,同时又是一位黑人穆斯林,他的任务是打入一个伊斯兰地下恐怖组织,及时破坏他们的恐怖行动。

  该剧的制作人表示:拍摄此剧,不是为了让美国人去更加害怕恐怖分子,而是要让他们认识到真正的穆斯林是爱好和平的,和那些伊斯兰激进分子完全不同。因为已经有越来越多的美国黑人信奉伊斯兰教,必须纠正人们对穆斯林的偏见。


Video
ID : 1
Format : HEVC
Format/Info : High Efficiency Video Coding
Format profile : Main@L4@Main
Codec ID : V_MPEGH/ISO/HEVC
Duration : 59 min 6 s
Bit rate : 8 775 kb/s
Width : 1 920 pixels
Height : 1 080 pixels
Display aspect ratio : 16:9
Frame rate mode : Constant
Frame rate : 23.976 (24000/1001) FPS
Standard : NTSC
Color space : YUV
Chroma subsampling : 4:2:0
Bit depth : 8 bits
Bits/(Pixel*Frame) : 0.176
Stream size : 3.62 GiB (93%)
Writing library : x265 0.0:[Linux][GCC 4.8.2][64 bit] 8bit+10bit+12bit
Encoding settings : cpuid=1173503 / frame-threads=1 / wpp / no-pmode / no-pme / psnr / ssim / log-level=2 / csvfn=/apollo/env/YoshiEncodingWorkflowActivitiesLinuxEncoding/var/tmp/1732996957/aa0b5e9f-5602-4f82-9adf-ccd99c12f3da/1d5a881a-1230-4d0b-b851-0a669022b1bd_video_1080p_9000kbps.csv / csv-log-level=2 / input-csp=1 / input-res=1920x1080 / interlace=0 / total-frames=0 / level-idc=40 / high-tier=1 / uhd-bd=0 / ref=5 / no-allow-non-conformance / no-repeat-headers / annexb / no-aud / no-hrd / info / hash=0 / no-temporal-layers / no-open-gop / min-keyint=61 / keyint=120 / bframes=5 / b-adapt=2 / b-pyramid / bframe-bias=0 / rc-lookahead=120 / lookahead-slices=0 / scenecut=0 / no-intra-refresh / ctu=64 / min-cu-size=8 / rect / no-amp / max-tu-size=32 / tu-inter-depth=1 / tu-intra-depth=1 / limit-tu=0 / rdoq-level=2 / dynamic-rd=0.00 / no-ssim-rd / signhide / no-tskip / nr-intra=0 / nr-inter=200 / no-constrained-intra / strong-intra-smoothing / max-merge=3 / limit-refs=3 / limit-modes / me=3 / subme=3 / merange=57 / temporal-mvp / weightp / no-weightb / no-analyze-src-pics / deblock=0:0 / sao / no-sao-non-deblock / rd=4 / no-early-skip / rskip / no-fast-intra / no-tskip-fast / no-cu-lossless / no-b-intra / rdpenalty=0 / psy-rd=2.00 / psy-rdoq=1.00 / no-rd-refine / analysis-reuse-mode=0 / no-lossless / cbqpoffs=0 / crqpoffs=0 / rc=crf / crf=21.5 / qcomp=0.60 / qpstep=4 / stats-write=0 / stats-read=0 / vbv-maxrate=9000 / vbv-bufsize=12000 / vbv-init=0.9 / crf-max=0.0 / crf-min=0.0 / ipratio=1.40 / pbratio=1.30 / aq-mode=3 / aq-strength=2.00 / cutree / zone-count=0 / no-strict-cbr / qg-size=32 / no-rc-grain / qpmax=69 / qpmin=0 / no-const-vbv / sar=1 / overscan=0 / videoformat=2 / range=0 / colorprim=1 / transfer=1 / colormatrix=1 / chromaloc=0 / display-window=0 / max-cll=0,0 / min-luma=0 / max-luma=255 / log2-max-poc-lsb=8 / vui-timing-info / vui-hrd-info / slices=1 / opt-qp-pps / opt-ref-list-length-pps / no-multi-pass-opt-rps / scenecut-bias=0.05 / no-opt-cu-delta-qp / no-aq-motion / no-hdr / no-hdr-opt / no-dhdr10-opt / analysis-reuse-level=5 / scale-factor=0 / refine-intra=0 / refine-inter=0 / refine-mv=0 / no-limit-sao / ctu-info=0
Default : Yes
Forced : No
Color range : Limited
Color primaries : BT.709
Transfer characteristics : BT.709
Matrix coefficients : BT.709

Audio
ID : 2
Format : E-AC-3
Format/Info : Enhanced AC-3
Commercial name : Dolby Digital Plus
Codec ID : A_EAC3
Duration : 59 min 6 s
Bit rate mode : Constant
Bit rate : 640 kb/s
Channel(s) : 6 channels
Channel layout : L R C LFE Ls Rs
Sampling rate : 48.0 kHz
Frame rate : 31.250 FPS (1536 SPF)
Compression mode : Lossy
Stream size : 271 MiB (7%)
Language : English
Service kind : Complete Main
Default : Yes
Forced : No

Text
ID : 3
Format : UTF-8
Codec ID : S_TEXT/UTF8
Codec ID/Info : UTF-8 Plain Text
Duration : 58 min 37 s
Bit rate : 61 b/s
Count of elements : 882
Stream size : 26.5 KiB (0%)
Language : English
Default : No
Forced : No



WEBRip.DDP5.1.x265版


磁力下载:magnet:?xt=urn:btih:6EC3277A7D7C29C628A7FAEF20ED547D824E0CD4
Sleeper.Cell.S01.1080p.AMZN.WEBRip.DDP5.1.x265-SiGMA.torrent
还没有人收藏过本帖~
最新回复 (0)
全部楼主

你可以在 登录 or 注册 后,对此帖发表评论!

返回