[永无止境/Limitless 第一季][全22集打包][英语无字][MKV][1080P][片源] 2015 美国 科幻 打包


◎译  名 永无止境 / 永无止境电视剧版

◎片  名 Limitless

◎年  代 2015

◎产  地 美国

◎类  别 剧情 / 科幻 / 惊悚

◎语  言 英语

◎上映日期 2015-09-23

◎IMDb评分 7.8/10 from 54575 users

◎IMDb链接 http://www.imdb.com/title/tt4422836

◎豆瓣评分 7.3/10 from 2912 users

◎豆瓣链接 https://movie.douban.com/subject/26235527/

◎BT之家整理 http://www.btbtt.us/

◎集  数 22

◎片  长 40分钟

◎导  演 尼尔·博格 Neil Burger / 马克·韦布 Marc Webb

◎编  剧 Craig Sweeny

◎主  演 杰克·麦克道曼 Jake McDorman

      詹妮弗·卡朋特 Jennifer Carpenter

      希尔·哈勃 Hill Harper

      玛丽·伊丽莎白·马斯特兰托尼奥 Mary Elizabeth Mastrantonio

      布莱德利·库珀 Bradley Cooper

      Michael James Shaw

      布莱尔·布朗 Blair Brown

      朗·瑞弗金 Ron Rifkin

      梅根·桂南 Megan Guinan

      Henry Gagliardi

      Sipiwe Moyo

      Mark Noonan

      Tom Degnan

      Mohammed Hossain

      艾米·穆林斯 Aimee Mullins




◎简  介  


  改编自2011年布莱德利·库珀主演的同名电影,男主角布莱恩·芬奇(Brian Finch)发现了一种具有神秘力量的药物NZT,于是他便使用自己获得的全新超能力帮助FBI解决案件。


Video
ID : 1
Format : AVC
Format/Info : Advanced Video Codec
Format profile : High@L4
Format settings : CABAC / 4 Ref Frames
Format settings, CABAC : Yes
Format settings, ReFrames : 4 frames
Codec ID : V_MPEG4/ISO/AVC
Duration : 42 min 15 s
Bit rate mode : Variable
Bit rate : 11.1 Mb/s
Maximum bit rate : 15.0 Mb/s
Width : 1 920 pixels
Height : 1 080 pixels
Display aspect ratio : 16:9
Frame rate mode : Constant
Frame rate : 23.976 (24000/1001) FPS
Color space : YUV
Chroma subsampling : 4:2:0
Bit depth : 8 bits
Scan type : Progressive
Bits/(Pixel*Frame) : 0.222
Stream size : 3.26 GiB (93%)
Writing library : x264 core 148 r2623 d5b2374
Encoding settings : cabac=1 / ref=4 / deblock=1:-1:-1 / analyse=0x3:0x133 / me=umh / subme=9 / psy=1 / psy_rd=1.00:0.15 / mixed_ref=1 / me_range=24 / chroma_me=1 / trellis=2 / 8x8dct=1 / cqm=0 / deadzone=21,11 / fast_pskip=1 / chroma_qp_offset=-3 / threads=34 / lookahead_threads=5 / sliced_threads=0 / nr=150 / decimate=1 / interlaced=0 / bluray_compat=0 / constrained_intra=0 / bframes=8 / b_pyramid=2 / b_adapt=2 / b_bias=0 / direct=3 / weightb=1 / open_gop=0 / weightp=2 / keyint=120 / keyint_min=61 / scenecut=0 / intra_refresh=0 / rc_lookahead=120 / rc=crf / mbtree=1 / crf=18.0 / qcomp=0.60 / qpmin=0 / qpmax=69 / qpstep=4 / vbv_maxrate=15000 / vbv_bufsize=31250 / crf_max=0.0 / nal_hrd=vbr / filler=0 / ip_ratio=1.40 / aq=3:1.00
Default : Yes
Forced : No
Color range : Limited
Color primaries : BT.709
Transfer characteristics : BT.709
Matrix coefficients : BT.709

Audio
ID : 2
Format : E-AC-3
Format/Info : Enhanced AC-3
Commercial name : Dolby Digital Plus
Codec ID : A_EAC3
Duration : 42 min 15 s
Bit rate mode : Constant
Bit rate : 640 kb/s
Channel(s) : 6 channels
Channel layout : L R C LFE Ls Rs
Sampling rate : 48.0 kHz
Frame rate : 31.250 FPS (1536 SPF)
Compression mode : Lossy
Stream size : 193 MiB (5%)
Language : English
Service kind : Complete Main
Default : Yes
Forced : No

Text
ID : 3
Format : UTF-8
Codec ID : S_TEXT/UTF8
Codec ID/Info : UTF-8 Plain Text
Language : English
Default : No
Forced : No

Menu
00:00:00.000 : en:Brian takes a sick day
00:03:08.000 : en:An unnamed government agency borrows Brian for a Black Op
00:05:24.000 : en:Title Sequence
00:05:44.000 : en:Break
00:05:48.000 : en:Brian is brought up to speed
00:07:48.000 : en:Brian gets to work
00:09:11.000 : en:The Black Op team closes in on their target
00:13:41.000 : en:Harris gets information
00:15:32.000 : en:The team takes Aleksey down
00:18:31.000 : en:Break
00:18:35.000 : en:Harris gets a name
00:20:21.000 : en:Brian asks the communications guy to help him
00:22:11.000 : en:Carla gives Harris more information
00:24:52.000 : en:Break
00:24:56.000 : en:Brian comes up with a plan
00:27:43.000 : en:Brian tries to turn the soldiers on each other
00:29:56.000 : en:Naz calls to lay eyes on Brian
00:33:18.000 : en:Break
00:33:22.000 : en:Brian tries to escape
00:35:59.000 : en:Harris finds Finch
00:40:06.000 : en:Andrei walks through the woods
00:41:28.000 : en:Finch Breaks the fourth wall
00:41:49.000 : en:End Credits




磁力下载:magnet:?xt=urn:btih:9B3EB16EFDBCD5486A7CCA21046AF3AB5648FE63
Limitless.S01.1080p.AMZN.WEBRip.DD5.1.x264-Web4HD.torrent
还没有人收藏过本帖~
最新回复 (0)
全部楼主

你可以在 登录 or 注册 后,对此帖发表评论!

返回