[大世界之旅/伟大的旅程 The Grand Tour 第一季][全13集打包][英语英字][MKV][1080P][片源] 2016 美国 真人 打包


◎译  名 大世界之旅 第一季 / 伟大的旅程

◎片  名 The Grand Tour Season 1

◎年  代 2016

◎产  地 英国

◎类  别 真人秀

◎语  言 英语

◎上映日期 2016-11-18(英国)

◎IMDb评分 8.7/10 from 49624 users

◎IMDb链接 http://www.imdb.com/title/tt5712554

◎豆瓣评分 9.4/10 from 2189 users

◎豆瓣链接 https://movie.douban.com/subject/26791670/

◎BT之家整理 http://www.btbtt.us/

◎集  数 13

◎片  长 60分钟

◎导  演 菲尔·查沃德 Phil Churchward / 布赖恩·克莱因 Brian Klein / 凯特·林奇·罗宾森 Kit Lynch Robinson

◎主  演 杰里米·克拉克森 Jeremy Clarkson

      理查德·哈蒙德 Richard Hammond

      詹姆斯·梅 James May

      Mike Skinner




◎简  介  


  Top Gear原三人组的新秀,定名为The Grand Tour,今年秋季开播。


Video
ID : 1
Format : HEVC
Format/Info : High Efficiency Video Coding
Format profile : Main@L4@Main
Codec ID : V_MPEGH/ISO/HEVC
Duration : 1 h 11 min
Bit rate : 8 659 kb/s
Width : 1 920 pixels
Height : 1 080 pixels
Display aspect ratio : 16:9
Frame rate mode : Constant
Frame rate : 23.976 (24000/1001) FPS
Standard : NTSC
Color space : YUV
Chroma subsampling : 4:2:0
Bit depth : 8 bits
Bits/(Pixel*Frame) : 0.174
Stream size : 4.30 GiB (93%)
Default : Yes
Forced : No
Color range : Limited
Color primaries : BT.709
Transfer characteristics : BT.709
Matrix coefficients : BT.709

Audio
ID : 2
Format : E-AC-3
Format/Info : Enhanced AC-3
Commercial name : Dolby Digital Plus
Codec ID : A_EAC3
Duration : 1 h 11 min
Bit rate mode : Constant
Bit rate : 640 kb/s
Channel(s) : 6 channels
Channel layout : L R C LFE Ls Rs
Sampling rate : 48.0 kHz
Frame rate : 31.250 FPS (1536 SPF)
Compression mode : Lossy
Stream size : 325 MiB (7%)
Language : English
Service kind : Complete Main
Default : Yes
Forced : No

Text
ID : 3
Format : UTF-8
Codec ID : S_TEXT/UTF8
Codec ID/Info : UTF-8 Plain Text
Duration : 1 h 10 min
Bit rate : 74 b/s
Count of elements : 1171
Stream size : 38.9 KiB (0%)
Language : English
Default : No
Forced : No



WEBRip.DDP5.1.x265版


磁力下载:magnet:?xt=urn:btih:60990B8DC43C06E03EE7DF8B35EBC77184641C7F
The.Grand.Tour.S01.1080p.AMZN.WEBRip.DDP5.1.x265-SiGMA.torrent
还没有人收藏过本帖~
最新回复 (1)
全部楼主
  • 一级用户组 风格和他 19天前
    0 引用 2
    ████黄直播【  5kky.  c  o  m  】    █████

    ████黄直播【  5kky.  c  o  m  】    █████

你可以在 登录 or 注册 后,对此帖发表评论!

返回