[百度][我的团长我的团][全43集][MP4][1080P][片源] 2009 大陆 战争 全集


译  名 
◎片  名 我的团长我的团
◎年  代 2009
◎国  家 中国大陆
◎类  别 历史/战争
◎语  言 汉语普通话
◎上映日期 2009-03-05(中国)
◎IMDb评分  8.3/10 from 18 users
◎IMDb链接  http://www.imdb.com/title/tt1479138/
◎豆瓣评分 8.6/10 from 16,539 users
◎豆瓣链接 https://movie.douban.com/subject/2997325/
◎集  数 43
◎片  长 45分钟
◎导  演 康洪雷 Honglei Kang
◎主  演 段奕宏 Yihong Duan
      张译 Yi Zhang
      张国强 Guoqiang Zhang
      邢佳栋 Jiadong Xing
      李晨 Chen Li
      曹海涛 Haitao Cao
      刘威葳  Weiwei Liu
      高峰 Feng Gao
      罗京民 Jingmin Luo
      王往 Wang Wang
      王大治 Dazhi Wang
      范雷 Lei Fan
      王迅 Xun Wang
      王东栋 Dongdong Wang
      刘天佐 Tianzuo Liu
      谢孟伟 Mengwei Xie
      左腾云 Tengyun Zuo
      赵志君 Zhijun Zhao
      王大奇 Daqi Wang
      袁菲 Fei Yuan
      江奇翰 Qihan Jiang
      李泓良 Hongliang Li
      杜建桥 Jianqiao Du
      张衡平 Hengping Zhang
      宿宇杰 Yujie Su
      马云
      何杰 Jie He
      白恩 En Bai
      柯志凌 Karl Eiselen
      曹操 Jonathan Kos-Read
      吴有才 Youcai Wu
      哈斯其其格
      史航 Hang Shi
      邓宝 Bao Deng
      陈思诚 Sicheng Chen
      张衍 Yan Zhang
      李京 Jing Li
      杨在景 Zaijing Yang
      李博 Bo Li
      刁海明 Haiming Diao
      兰晓龙 Xiaolong Lan

◎简  介

  1942年,中缅边境有座叫禅达的小镇。时不时受到炮火袭击的地方,聚集着一群来自五湖四海的溃兵。他们是小少爷孟凡了(张译 饰)、军医郝兽医(罗京民 饰)、东北佬迷龙(张国强 饰)、阿译长官(王往 饰)、湖南人不辣(王大治 饰)等。他们只求有吃的死不了,如同活死尸。这时,师长虞啸卿(邢佳栋 饰)出现了,他想利用这群散兵重组川军团,空降缅甸参加战争。但到达战场的小分队面对的却是已成定局的溃败。最后剩下的孟烦了一行人被逼退到四面楚歌的小屋里。外面是不断靠近的日本兵,危机的最高点,拯救他们的是自称团长的龙文章(段奕宏 饰)。
  龙文章其人,由来不明,不按常理出牌,却奇迹地带领着孟烦了一行人渡过怒江,回到了禅达。等待他们的不是嘉奖,而是看守。而龙文章则被发现根本不是什么团长,而是摘了军衔自己挂帅的中尉。就在大家都猜测龙文章凶多吉少时,龙文章不仅没死还被虞啸卿任命为川军团团长,但等待他们的是更深的漩涡……
General
Complete name                            : J:\NYHD\My.chief.My.Regiment.2009.Complete.1080p.WEB-DL.H264.AAC-NYHD\My.chief.My.Regiment.2009.E01.1080p.WEB-DL.H264.AAC-NYHD.mp4
Format                                   : MPEG-4
Format profile                           : Base Media
Codec ID                                 : isom
File size                                : 1 011 MiB
Duration                                 : 45mn 5s
Overall bit rate                         : 3 137 Kbps
Writing application                      : Lavf56.31.100

Video
ID                                       : 1
Format                                   : AVC
Format/Info                              : Advanced Video Codec
Format profile                           : High@L4.0
Format settings, CABAC                   : Yes
Format settings, ReFrames                : 4 frames
Codec ID                                 : avc1
Codec ID/Info                            : Advanced Video Coding
Duration                                 : 45mn 5s
Bit rate                                 : 3 002 Kbps
Width                                    : 1 904 pixels
Height                                   : 1 072 pixels
Display aspect ratio                     : 16:9
Frame rate mode                          : Constant
Frame rate                               : 25.000 fps
Color space                              : YUV
Chroma subsampling                       : 4:2:0
Bit depth                                : 8 bits
Scan type                                : Progressive
Bits/(Pixel*Frame)                       : 0.059
Stream size                              : 968 MiB (96%)
Writing library                          : Provided by www.letv.com  :: H.264/MPEG-4 AVC codec -V 1.6.09-20151125

Audio
ID                                       : 2
Format                                   : AAC
Format/Info                              : Advanced Audio Codec
Format profile                           : LC
Codec ID                                 : 40
Duration                                 : 45mn 5s
Bit rate mode                            : Constant
Bit rate                                 : 128 Kbps
Channel(s)                               : 2 channels
Channel positions                        : Front: L R
Sampling rate                            : 44.1 KHz
Compression mode                         : Lossy
Stream size                              : 41.3 MiB (4%)


转自NYPT,目前能找到的最好版本了,推荐洗版!!!


磁力下载:
还没有人收藏过本帖~
最新回复 (3)
全部楼主
  • 一级用户组 TT 1月前
    0 引用 2
    对对对
  • 一级用户组 lizhimusic 25天前
    0 引用 3
    怎么没有内容呢?
  • 一级用户组 dinglong 9天前
    0 引用 4
    我就想问,链接那?

你可以在 登录 or 注册 后,对此帖发表评论!

返回