[星际之门.亚特兰蒂斯/Stargate.Atlantis 第一至五季][全05季打包][英语英字][MKV][1080P][片源] 合集 美国 科幻 打包


◎译  名 星际之门:亚特兰蒂斯 

◎片  名 Stargate: Atlantis 

◎年  代 2004

◎国  家 美国/加拿大

◎类  别 动作/剧情/科幻/冒险

◎语  言 英语/西班牙语/捷克语

◎上映日期 2004-07-16(美国)

◎IMDb评分  8.1/10 from 49,706 users

◎IMDb链接  http://www.imdb.com/title/tt0374455/

◎豆瓣评分 8.3/10 from 1,705 users

◎豆瓣链接 https://movie.douban.com/subject/1422890/

◎BT之家整理 http://www.btbtt.us/

◎片  长 45分钟

◎导  演 Brad Wright

◎主  演 乔·弗拉尼甘 Joe Flanigan

      托蕊·海金森 Torri Higginson

      瑞秋·鲁特雷尔 Rachel Luttrell


◎简  介


  曾经,一个高度发达的先进种族Ancient以地球为基地,几百万年前,不知什么原因,他们离开地球去了某地,在南极只留下一个前哨站。在Jack O'Neill将军用前哨站的一种Ancient武器消灭前来攻击地区的Goa'uld人的舰队之後,各国合作建立了南极联盟,为研究前哨站里的Ancient科技、促进国际合作与和平而共同努力。在研究过程中,他们发现了Ancient离开地球后所去的地方——飞马座星系。于是,为了发掘被埋没的历史、探索未知的世界,各国组建了亚特兰蒂斯探险团队,通过星际之门到达了几百万年前从地球飞走的亚特兰蒂斯城。

  但不幸的是,地球人的到来惊醒了一群统治飞马座星系的怪物——Wraith,他们技术先进、体格健壮,性情粗野残暴,不讲信义,而且以人类为牲畜,吸人生命。一万年前他们打败了Ancient并迫使其逃回地球,而探险队也发现了一个惊人的事实:Wraith是Ancient试验的产物!为了对抗强大的Wraith,亚特兰蒂斯的小分队不得不探索飞马座星系诸星球,与飞马的原住民联系,试图找到抵御Wraith的方法,经历了一次次险象环生的旅程。

  【PS】

  《星际之门:亚特兰蒂斯》(英文Stargate Atlantis,简称SGA)是作为Stargate SG-1的一个衍生剧集开始的。SG-1本准备继续它的第7季和第二个故事片,但是当SG-1的第8季时,预定的电影变成了2集的季末终结篇"Lost City",Stargate Atlantis的设定也被移到了飞马星系。[10] 这样就可以让这两个节目在同一个虚构宇宙中并存,之后这两个节目甚至开始互相连接,基本上实现了观众想同时看两个节目的愿望。这个节目是由大多数的SG-1原班人马在同一个摄影棚里制作的。

  Atlantis于2004年7月16日在(美国)Sci-Fi(科幻)频道初次上演,由en:Joe Flanigan和en:Torri Higginson主演,Rainbow Sun Francks、en:David Hewlett和en:Rachel Luttrell为配角。Hewlett与Higginson先前在SG-1中有角色。在Atlantis的第二季中,en:Paul McGillion和en:Jason Momoa(代替Francks)加入了常规演员的行列。该剧集已在第五季完结。


Video
ID : 1
Format : HEVC
Format/Info : High Efficiency Video Coding
Format profile : Main@L4@Main
Codec ID : V_MPEGH/ISO/HEVC
Duration : 43 min 37 s
Bit rate : 8 920 kb/s
Width : 1 920 pixels
Height : 1 080 pixels
Display aspect ratio : 16:9
Frame rate mode : Constant
Frame rate : 23.976 (24000/1001) FPS
Standard : NTSC
Color space : YUV
Chroma subsampling : 4:2:0
Bit depth : 8 bits
Bits/(Pixel*Frame) : 0.179
Stream size : 2.72 GiB (98%)
Writing library : x265 0.0:[Linux][GCC 4.8.2][64 bit] 8bit+10bit+12bit
Encoding settings : cpuid=1173503 / frame-threads=1 / wpp / no-pmode / no-pme / psnr / ssim / log-level=2 / csvfn=/apollo/env/YoshiEncodingWorkflowActivitiesLinuxEncoding/var/tmp/131777381/e0dd01f2-2516-47e4-8837-36b36b142de8/2eb6d439-8b40-45b5-b02f-8083990d9e75_video_1080p_9000kbps.csv / csv-log-level=2 / input-csp=1 / input-res=1920x1080 / interlace=0 / total-frames=0 / level-idc=40 / high-tier=1 / uhd-bd=0 / ref=5 / no-allow-non-conformance / no-repeat-headers / annexb / no-aud / no-hrd / info / hash=0 / no-temporal-layers / no-open-gop / min-keyint=61 / keyint=120 / bframes=5 / b-adapt=2 / b-pyramid / bframe-bias=0 / rc-lookahead=120 / lookahead-slices=0 / scenecut=0 / no-intra-refresh / ctu=64 / min-cu-size=8 / rect / no-amp / max-tu-size=32 / tu-inter-depth=1 / tu-intra-depth=1 / limit-tu=0 / rdoq-level=2 / dynamic-rd=0.00 / no-ssim-rd / signhide / no-tskip / nr-intra=0 / nr-inter=200 / no-constrained-intra / strong-intra-smoothing / max-merge=3 / limit-refs=3 / limit-modes / me=3 / subme=3 / merange=57 / temporal-mvp / weightp / no-weightb / no-analyze-src-pics / deblock=0:0 / sao / no-sao-non-deblock / rd=4 / no-early-skip / rskip / no-fast-intra / no-tskip-fast / no-cu-lossless / no-b-intra / rdpenalty=0 / psy-rd=2.00 / psy-rdoq=1.00 / no-rd-refine / analysis-reuse-mode=0 / no-lossless / cbqpoffs=0 / crqpoffs=0 / rc=crf / crf=21.5 / qcomp=0.60 / qpstep=4 / stats-write=0 / stats-read=0 / vbv-maxrate=9000 / vbv-bufsize=12000 / vbv-init=0.9 / crf-max=0.0 / crf-min=0.0 / ipratio=1.40 / pbratio=1.30 / aq-mode=3 / aq-strength=2.00 / cutree / zone-count=0 / no-strict-cbr / qg-size=32 / no-rc-grain / qpmax=69 / qpmin=0 / no-const-vbv / sar=1 / overscan=0 / videoformat=2 / range=0 / colorprim=1 / transfer=1 / colormatrix=1 / chromaloc=0 / display-window=0 / max-cll=0,0 / min-luma=0 / max-luma=255 / log2-max-poc-lsb=8 / vui-timing-info / vui-hrd-info / slices=1 / opt-qp-pps / opt-ref-list-length-pps / no-multi-pass-opt-rps / scenecut-bias=0.05 / no-opt-cu-delta-qp / no-aq-motion / no-hdr / no-hdr-opt / no-dhdr10-opt / analysis-reuse-level=5 / scale-factor=0 / refine-intra=0 / refine-inter=0 / refine-mv=0 / no-limit-sao / ctu-info=0
Default : Yes
Forced : No
Color range : Limited
Color primaries : BT.709
Transfer characteristics : BT.709
Matrix coefficients : BT.709

Audio
ID : 2
Format : E-AC-3
Format/Info : Enhanced AC-3
Commercial name : Dolby Digital Plus
Codec ID : A_EAC3
Duration : 43 min 37 s
Bit rate mode : Constant
Bit rate : 224 kb/s
Channel(s) : 2 channels
Channel layout : L R
Sampling rate : 48.0 kHz
Frame rate : 31.250 FPS (1536 SPF)
Compression mode : Lossy
Stream size : 69.9 MiB (2%)
Language : English
Service kind : Complete Main
Default : Yes
Forced : No

Text
ID : 3
Format : UTF-8
Codec ID : S_TEXT/UTF8
Codec ID/Info : UTF-8 Plain Text
Duration : 42 min 22 s
Bit rate : 92 b/s
Count of elements : 693
Stream size : 28.8 KiB (0%)
Title : English (SDH)
Language : English
Default : No
Forced : No



磁力下载:magnet:?xt=urn:btih:E0F3D48A79AF95609979C902FEBBA5B70151B7A1
Stargate.Atlantis.S01.1080p.AMZN.WEBRip.DDP2.0.x265-SiGMA.torrent
磁力下载:magnet:?xt=urn:btih:DAA641743FD5A000CE97E1313EF2D2CC1D5E7665
Stargate.Atlantis.S02.1080p.AMZN.WEBRip.DDP2.0.x265-SiGMA.torrent
磁力下载:magnet:?xt=urn:btih:95DD3260224008A25F295141144CA36C3544351D
Stargate.Atlantis.S03.1080p.AMZN.WEBRip.DDP2.0.x265-SiGMA.torrent
磁力下载:magnet:?xt=urn:btih:787A7BC80061C6E55D9FE8D5B3F25D568C307D7D
Stargate.Atlantis.S04.1080p.AMZN.WEBRip.DDP2.0.x265-SiGMA.torrent
磁力下载:magnet:?xt=urn:btih:5028C36EA8CD78C11FC832A40BDE2FAA9D0EABA0
Stargate.Atlantis.S05.1080p.AMZN.WEBRip.DDP2.0.x265-SiGMA.torrent
还没有人收藏过本帖~
最新回复 (0)
全部楼主

你可以在 登录 or 注册 后,对此帖发表评论!

返回