616匿名 Anonymous.616.2018.720p.AMZN.WEBRip.DDP2.0.x264-NTG 915MB 2018 欧美 恐怖 WEB-720P


Anonymous.616.2018.720p.AMZN.WEBRip.DDP2.0.x264-NTG

◎译  名 616匿名

◎片  名 Anonymous 616

◎年  代 2018

◎产  地 美国

◎类  别 惊悚/恐怖

◎语  言 英语

◎上映日期 2018-04-17(美国)

◎IMDb评分  6.6/10 from 81 users

◎IMDb链接  http://www.imdb.com/title/tt6411954/

◎ http://www.btbtt.co

◎片  长 80分钟

◎导  演 Mike Boss

◎主  演 Bella Shepard,

      艾米丽·乔丹 Emily Jordan

      Myles Cranford


◎简  介


  A reunion between two couples becomes a massacre when one of the guests meets an anonymous person online and willingly becomes a participant on a bloody path to becoming God-like.



Video
ID                                       : 1
Format                                   : AVC
Format/Info                              : Advanced Video Codec
Format profile                           : High@L3.1
Format settings                          : CABAC / 5 Ref Frames
Format settings, CABAC                   : Yes
Format settings, ReFrames                : 5 frames
Codec ID                                 : V_MPEG4/ISO/AVC
Duration                                 : 1 h 20 min
Bit rate mode                            : Variable
Bit rate                                 : 1 363 kb/s
Maximum bit rate                         : 4 500 kb/s
Width                                    : 1 280 pixels
Height                                   : 720 pixels
Display aspect ratio                     : 16:9
Frame rate mode                          : Constant
Frame rate                               : 23.976 (24000/1001) FPS
Color space                              : YUV
Chroma subsampling                       : 4:2:0
Bit depth                                : 8 bits
Scan type                                : Progressive
Bits/(Pixel*Frame)                       : 0.062
Stream size                              : 785 MiB (86%)
Default                                  : Yes
Forced                                   : No
Color range                              : Limited
Color primaries                          : BT.709
Transfer characteristics                 : BT.709
Matrix coefficients                      : BT.709

Audio
ID                                       : 2
Format                                   : E-AC-3
Format/Info                              : Enhanced Audio Coding 3
Codec ID                                 : A_EAC3
Duration                                 : 1 h 20 min
Bit rate mode                            : Constant
Bit rate                                 : 224 kb/s
Channel(s)                               : 2 channels
Channel positions                        : Front: L R
Sampling rate                            : 48.0 kHz
Frame rate                               : 187.500 FPS (256 SPF)
Compression mode                         : Lossy
Stream size                              : 129 MiB (14%)
Language                                 : English
Service kind                             : Complete Main
Default                                  : Yes
Forced                                   : No

Text #1
ID                                       : 3
Format                                   : UTF-8
Codec ID                                 : S_TEXT/UTF8
Codec ID/Info                            : UTF-8 Plain Text
Duration                                 : 1 h 15 min
Bit rate                                 : 51 b/s
Count of elements                        : 1090
Stream size                              : 28.8 KiB (0%)
Language                                 : English
Default                                  : No
Forced                                   : No

Text #2
ID                                       : 4
Format                                   : UTF-8
Codec ID                                 : S_TEXT/UTF8
Codec ID/Info                            : UTF-8 Plain Text
Duration                                 : 1 h 17 min
Bit rate                                 : 61 b/s
Count of elements                        : 1505
Stream size                              : 35.2 KiB (0%)
Title                                    : SDH
Language                                 : English
Default                                  : No
Forced                                   : No



磁力下载:magnet:?xt=urn:btih:BBD496D0BDF9187EE25469FDDE19D2ED0C5CE11B
Anonymous.616.2018.720p.AMZN.WEBRip.DDP2.0.x264-NTG[btyuan.com].torrent
还没有人收藏过本帖~
最新回复 (0)
全部楼主

你可以在 登录 or 注册 后,对此帖发表评论!

返回