黑豹 Black.Panther.2018.2160p.BluRay.x264.8bit.SDR.DTS-SWTYBLZ 31GB 2018 欧美 科幻

admin 2月前 9

自带中字

Black.Panther.2018.2160p.BluRay.x264.8bit.SDR.DTS-HD.MA.TrueHD.7.1.Atmos-SWTYBLZ

◎译  名 黑豹

◎片  名 Black Panther

◎年  代 2018

◎产  地 美国

◎类  别 动作/科幻/冒险

◎语  言 英语/韩语

◎上映日期 2018-02-16(美国)/2018-03-09(中国大陆)

◎IMDb评分  7.7/10 from 243,126 users

◎IMDb链接  http://www.imdb.com/title/tt1825683/

◎豆瓣评分 6.7/10 from 134,586 users

◎豆瓣链接 https://movie.douban.com/subject/6390825/

◎ http://www.btbtt.co

◎片  长 134分钟/135分钟(中国大陆)

◎导  演 瑞恩·库格勒 Ryan Coogler

◎主  演 查德维克·博斯曼 Chadwick Boseman

      露皮塔·尼永奥 Lupita Nyong'o

      迈克尔·B·乔丹 Michael B. Jordan

      丹娜·奎里拉 Danai Gurira

      马丁·弗瑞曼 Martin Freeman

      丹尼尔·卡卢亚 Daniel Kaluuya

      利蒂希娅·赖特 Letitia Wright

      温斯顿·杜克 Winston Duke

      斯特林·K·布朗 Sterling K. Brown

      安吉拉·贝塞特 Angela Bassett

      福里斯特·惠特克 Forest Whitaker

      安迪·瑟金斯 Andy Serkis

      弗洛伦丝·卡松巴 Florence Kasumba

      约翰·卡尼 John Kani

      大卫·S.李 David S. Lee

      娜比娅·毕 Nabiyah Be


◎简  介


  在漫威影业的影片《黑豹》中,特查拉在其父亲——前瓦坎达国王去世之后,回到了这个科技先进但与世隔绝的非洲国家,继任成为新一任“黑豹”及国王。当旧敌重现时,作为“黑豹”及国王的特查拉身陷两难境地,眼看着瓦坎达及全世界陷于危难之中。面对背叛与危险,这位年轻的国王必须联合同盟, 释放“黑豹”全部力量,奋力捍卫他的人民和国土。


◎获奖情况


  第4届豆瓣电影年度榜单  (2017)

  最值得期待的外语电影(提名)



Video
ID                                       : 1
Format                                   : AVC
Format/Info                              : Advanced Video Codec
Format profile                           : High@L5.1
Format settings                          : CABAC / 5 Ref Frames
Format settings, CABAC                   : Yes
Format settings, RefFrames               : 5 frames
Codec ID                                 : V_MPEG4/ISO/AVC
Duration                                 : 2 h 14 min
Bit rate                                 : 25.4 Mb/s
Width                                    : 3 840 pixels
Height                                   : 1 608 pixels
Display aspect ratio                     : 2.40:1
Frame rate mode                          : Constant
Frame rate                               : 23.976 (24000/1001) FPS
Color space                              : YUV
Chroma subsampling                       : 4:2:0
Bit depth                                : 8 bits
Scan type                                : Progressive
Bits/(Pixel*Frame)                       : 0.171
Stream size                              : 23.8 GiB (75%)
Title                                    : Black.Panther.2018.2160p.BluRay.x264.8bit.SDR.DTS-HD.MA.TrueHD.7.1.Atmos-SWTYBLZ
Writing library                          : x264 core 148 r2748 97eaef2
Encoding settings                        : cabac=1 / ref=5 / deblock=1:-1:-1 / analyse=0x3:0x113 / me=umh / subme=10 / psy=1 / psy_rd=1.00:0.15 / mixed_ref=1 / me_range=48 / chroma_me=1 / trellis=2 / 8x8dct=1 / cqm=0 / deadzone=21,11 / fast_pskip=1 / chroma_qp_offset=-3 / threads=36 / lookahead_threads=3 / sliced_threads=0 / nr=0 / decimate=0 / interlaced=0 / bluray_compat=0 / constrained_intra=0 / bframes=3 / b_pyramid=2 / b_adapt=2 / b_bias=0 / direct=3 / weightb=1 / open_gop=0 / weightp=2 / keyint=250 / keyint_min=23 / scenecut=40 / intra_refresh=0 / rc_lookahead=50 / rc=crf / mbtree=1 / crf=18.0 / qcomp=0.60 / qpmin=0 / qpmax=69 / qpstep=4 / ip_ratio=1.40 / aq=1:1.00
Default                                  : Yes
Forced                                   : No

Audio #1
ID                                       : 2
Format                                   : TrueHD
Format profile                           : TrueHD+Atmos / TrueHD
Codec ID                                 : A_TRUEHD
Duration                                 : 2 h 14 min
Bit rate mode                            : Variable
Bit rate                                 : 4 327 kb/s
Maximum bit rate                         : 7 134 kb/s
Channel(s)                               : Object Based / 8 channels
Channel positions                        : Object Based / Front: L C R, Side: L R, Back: L R, LFE
Sampling rate                            :  / 48.0 kHz
Frame rate                               : 1 200.000 FPS (40 SPF)
Compression mode                         : Lossless
Delay relative to video                  : 32 ms
Stream size                              : 4.07 GiB (13%)
Title                                    : Black.Panther.2018.2160p.BluRay.x264.8bit.SDR.DTS-HD.MA.TrueHD.7.1.Atmos-SWTYBLZ
Language                                 : English
Default                                  : Yes
Forced                                   : No

Audio #2
ID                                       : 3
Format                                   : DTS
Format/Info                              : Digital Theater Systems
Format profile                           : MA / Core
Codec ID                                 : A_DTS
Duration                                 : 2 h 14 min
Bit rate mode                            : Variable / Constant
Bit rate                                 : 3 247 kb/s / 1 509 kb/s
Channel(s)                               : 8 channels / 6 channels
Channel positions                        : Front: L C R, Side: L R, Back: L R, LFE / Front: L C R, Side: L R, LFE
Sampling rate                            : 48.0 kHz
Frame rate                               : 93.750 FPS (512 SPF)
Bit depth                                : 24 bits
Compression mode                         : Lossless / Lossy
Stream size                              : 3.05 GiB (10%)
Title                                    : Black.Panther.2018.2160p.BluRay.x264.8bit.SDR.DTS-HD.MA.TrueHD.7.1.Atmos-SWTYBLZ
Language                                 : English
Default                                  : No
Forced                                   : No

Audio #3
ID                                       : 4
Format                                   : AC-3
Format/Info                              : Audio Coding 3
Codec ID                                 : A_AC3
Duration                                 : 2 h 14 min
Bit rate mode                            : Constant
Bit rate                                 : 640 kb/s
Channel(s)                               : 6 channels
Channel positions                        : Front: L C R, Side: L R, LFE
Sampling rate                            : 48.0 kHz
Frame rate                               : 31.250 FPS (1536 SPF)
Bit depth                                : 16 bits
Compression mode                         : Lossy
Delay relative to video                  : 31 ms
Stream size                              : 616 MiB (2%)
Title                                    : Black.Panther.2018.2160p.BluRay.x264.8bit.SDR.DTS-HD.MA.TrueHD.7.1.Atmos-SWTYBLZ
Language                                 : English
Service kind                             : Complete Main
Default                                  : No
Forced                                   : No

Text #1
ID                                       : 5
Format                                   : UTF-8
Codec ID                                 : S_TEXT/UTF8
Codec ID/Info                            : UTF-8 Plain Text
Duration                                 : 2 h 14 min
Bit rate                                 : 42 b/s
Count of elements                        : 1585
Stream size                              : 41.7 KiB (0%)
Title                                    : English-SRT
Language                                 : English
Default                                  : Yes
Forced                                   : No

Text #2
ID                                       : 6
Format                                   : PGS
Muxing mode                              : zlib
Codec ID                                 : S_HDMV/PGS
Codec ID/Info                            : Picture based subtitle format used on BDs/HD-DVDs
Duration                                 : 2 h 14 min
Bit rate                                 : 32.4 kb/s
Count of elements                        : 3670
Stream size                              : 31.0 MiB (0%)
Title                                    : English-PGS
Language                                 : English
Default                                  : No
Forced                                   : No

Text #3
ID                                       : 7
Format                                   : PGS
Muxing mode                              : zlib
Codec ID                                 : S_HDMV/PGS
Codec ID/Info                            : Picture based subtitle format used on BDs/HD-DVDs
Duration                                 : 2 h 14 min
Bit rate                                 : 27.4 kb/s
Count of elements                        : 2946
Stream size                              : 26.3 MiB (0%)
Title                                    : French-PGS
Language                                 : French
Default                                  : No
Forced                                   : No

Text #4
ID                                       : 8
Format                                   : PGS
Muxing mode                              : zlib
Codec ID                                 : S_HDMV/PGS
Codec ID/Info                            : Picture based subtitle format used on BDs/HD-DVDs
Duration                                 : 2 h 14 min
Bit rate                                 : 26.9 kb/s
Count of elements                        : 2906
Stream size                              : 25.8 MiB (0%)
Title                                    : Spanish-PGS
Language                                 : Spanish
Default                                  : No
Forced                                   : No

Text #5
ID                                       : 9
Format                                   : PGS
Muxing mode                              : zlib
Codec ID                                 : S_HDMV/PGS
Codec ID/Info                            : Picture based subtitle format used on BDs/HD-DVDs
Duration                                 : 2 h 14 min
Bit rate                                 : 16.2 kb/s
Count of elements                        : 2908
Stream size                              : 15.6 MiB (0%)
Title                                    : Chinese-PGS
Language                                 : Chinese
Default                                  : No
Forced                                   : No

Text #6
ID                                       : 10
Format                                   : PGS
Muxing mode                              : zlib
Codec ID                                 : S_HDMV/PGS
Codec ID/Info                            : Picture based subtitle format used on BDs/HD-DVDs
Duration                                 : 2 h 14 min
Bit rate                                 : 13.4 kb/s
Count of elements                        : 2930
Stream size                              : 12.9 MiB (0%)
Title                                    : Korean-PGS
Language                                 : Korean
Default                                  : No
Forced                                   : No

Text #7
ID                                       : 11
Format                                   : PGS
Muxing mode                              : zlib
Codec ID                                 : S_HDMV/PGS
Codec ID/Info                            : Picture based subtitle format used on BDs/HD-DVDs
Duration                                 : 2 h 14 min
Bit rate                                 : 16.1 kb/s
Count of elements                        : 2912
Stream size                              : 15.5 MiB (0%)
Title                                    : Thai-PGS
Language                                 : Thai
Default                                  : No
Forced                                   : No

Text #8
ID                                       : 12
Format                                   : PGS
Muxing mode                              : zlib
Codec ID                                 : S_HDMV/PGS
Codec ID/Info                            : Picture based subtitle format used on BDs/HD-DVDs
Duration                                 : 2 h 14 min
Bit rate                                 : 17.8 kb/s
Count of elements                        : 2998
Stream size                              : 17.1 MiB (0%)
Title                                    : Chinese-PGS
Language                                 : Chinese
Default                                  : No
Forced                                   : No

Menu
00:00:00.000                             : en:Chapter 1
00:06:56.290                             : en:Chapter 2
00:12:02.805                             : en:Chapter 3
00:19:12.359                             : en:Chapter 4
00:28:32.961                             : en:Chapter 5
00:33:11.698                             : en:Chapter 6
00:40:57.496                             : en:Chapter 7
00:48:34.036                             : en:Chapter 8
00:53:46.097                             : en:Chapter 9
01:01:57.338                             : en:Chapter 10
01:08:33.025                             : en:Chapter 11
01:16:46.768                             : en:Chapter 12
01:22:24.022                             : en:Chapter 13
01:31:21.434                             : en:Chapter 14
01:41:15.360                             : en:Chapter 15
01:50:56.483                             : en:Chapter 16
01:59:16.941                             : en:Chapter 17
02:02:43.647                             : en:Chapter 18







磁力下载:
Black.Panther.2018.2160p.BluRay.x264.8bit.SDR.DTS-HD.MA.TrueHD.7.1.Atmos-SWTYBLZ[btyuan.com].torrent
最新回复 (0)
全部楼主

你可以在 登录 or 注册 后,对此帖发表评论!

返回