无保护 Witness.Unprotected.2018.1080p.WEB-DL.DD5.1.H264-FGT 3.31GB 2018 欧美 惊悚 WEB-1080P


Witness.Unprotected.2018.1080p.WEB-DL.DD5.1.H264-FGT

◎译  名 无保护 

◎片  名 Witness Unprotected

◎年  代 2018

◎产  地 美国

◎类  别 惊悚

◎语  言 英语

◎ http://www.btbtt.co

◎片  长 1h 30min

◎导  演 Fred Olen Ray

◎主  演 Daphne Zuniga ... Sam

      Adam Huss ... Carlton

      Tim Abell ... Walker

      Gianna DiDonato ... Laurie


◎简  介


  At the start of high school, Piper, Sophie, Isabella and Honor think they will be best friends forever, so they sink a time capsule in the lake with a list of things they want to do before graduation. By senior year, they have gone their separate ways. Piper has turned into the class clown, party girl who never passes up a drink. Sophie pledges to stay a virgin until she is married and has created a purity app. Isabella is the feminist femme fatale who's the editor of a zine. And Honor is the pride and joy of the community. Her dream of being a professional ballerina is taking off. But when tragedy strikes, the former BFFs must reunite, break open the capsule and complete the pre-graduation bucket list.


Video
ID                                       : 1
Format                                   : AVC
Format/Info                              : Advanced Video Codec
Format profile                           : High@L4
Format settings                          : CABAC / 4 Ref Frames
Format settings, CABAC                   : Yes
Format settings, ReFrames                : 4 frames
Codec ID                                 : V_MPEG4/ISO/AVC
Duration                                 : 1 h 25 min
Bit rate                                 : 5 174 kb/s
Width                                    : 1 904 pixels
Height                                   : 1 064 pixels
Display aspect ratio                     : 16:9
Frame rate mode                          : Constant
Frame rate                               : 23.976 (24000/1001) FPS
Color space                              : YUV
Chroma subsampling                       : 4:2:0
Bit depth                                : 8 bits
Scan type                                : Progressive
Bits/(Pixel*Frame)                       : 0.107
Stream size                              : 3.08 GiB (93%)
Title                                    : Witness.Unprotected.2018.1080p.WEB-DL.DD5.1.H.264-FGT
Language                                 : English
Default                                  : Yes
Forced                                   : No
Color range                              : Limited
Color primaries                          : BT.709
Transfer characteristics                 : BT.709
Matrix coefficients                      : BT.709

Audio
ID                                       : 2
Format                                   : AC-3
Format/Info                              : Audio Coding 3
Codec ID                                 : A_AC3
Duration                                 : 1 h 25 min
Bit rate mode                            : Constant
Bit rate                                 : 384 kb/s
Channel(s)                               : 6 channels
Channel positions                        : Front: L C R, Side: L R, LFE
Sampling rate                            : 48.0 kHz
Frame rate                               : 31.250 FPS (1536 SPF)
Bit depth                                : 16 bits
Compression mode                         : Lossy
Delay relative to video                  : -42 ms
Stream size                              : 234 MiB (7%)
Title                                    : Witness.Unprotected.2018.1080p.WEB-DL.DD5.1.H.264-FGT
Language                                 : English
Service kind                             : Complete Main
Default                                  : Yes
Forced                                   : No

Text
ID                                       : 3
Format                                   : UTF-8
Codec ID                                 : S_TEXT/UTF8
Codec ID/Info                            : UTF-8 Plain Text
Duration                                 : 1 h 23 min
Bit rate                                 : 72 b/s
Count of elements                        : 1571
Stream size                              : 44.3 KiB (0%)
Language                                 : English
Default                                  : Yes
Forced                                   : No

Menu
00:00:00.000                             : en:Chapter 1
00:10:08.608                             : en:Chapter 2
00:20:24.223                             : en:Chapter 3
00:28:50.729                             : en:Chapter 4
00:40:10.408                             : en:Chapter 5
00:51:23.080                             : en:Chapter 6
01:01:43.700                             : en:Chapter 7
01:11:55.311                             : en:Chapter 8
01:23:09.985                             : en:Chapter 9



磁力下载:
Witness.Unprotected.2018.1080p.WEB-DL.DD5.1.H.264-FGT[btyuan.com].torrent
还没有人收藏过本帖~
最新回复 (0)
全部楼主

你可以在 登录 or 注册 后,对此帖发表评论!

返回