[BT][哆啦A梦剧场版1981:大雄的宇宙开拓史][1080i/HDTV/TS/国粤日三语/12.36GB] 更早 日本 动画 HDTV/HDrip

admin 15天前 33

片源由a574045075提供,在此感谢!
台配音轨、粤语音轨提取自VCD,已做调制匹配高清重制版。
这次是费了好大的劲才调制好的,部分口型对不上,不是帧率问题,转帧会越拉越长,只能通过拉伸变调来处理了。
如需转载,请注明出处!

‍◎译  名 哆啦A梦:大雄的宇宙开拓史
◎片  名 映画ドラえもん のび太の宇宙開拓史
◎年  代 1981
◎产  地 日本
◎类  别 科幻/动画/冒险
◎语  言 日语
◎上映日期 1981-03-14(日本)
◎IMDb评分  6.9/10 from 96 users
◎IMDb链接  ‍http://www.imdb.com/title/tt1147515/
‍◎豆瓣评分 8.1/10 from 2,562 users
◎豆瓣链接 h‍ttps://movie.douban.com/subject/1458890/
‍◎片  长 103分钟
‍‍◎导  演 西牧秀夫
◎主  演 大山信代 Nobuyo Ohyama
       小原乃梨子 Noriko Ohara
       野村道子 Michiko Nomura
         立壁和也 Kazuya Tatekabe
         肝付兼太 Kaneta Kimotsuki‍‍
‍‍
‍◎简  介

  大雄(小原乃梨子 配音)与哆啦A梦玩耍时意外发现,房间的塌塌米下方与旷野星上一艘太空船相连,太空船的主人叫罗布鲁(菅谷政子 配音)。大雄与哆啦A梦(大山信代 配音)阴差阳错地进到了这个星球,在旷野星上,引力比地球小,大雄成了大力士飞毛腿,成了旷野星的超人了。同时也结识了一批旷野星上的朋友,罗布鲁的妹妹克蕾姆(小山茉美 配音),还有跟哆啦A梦一样爱吃铜锣烧的江姆(杉山佳寿子 配音),全身覆毛的雌性动物,是罗布鲁的宠物。而罗布鲁的家人和邻居遭到了卡尔泰矿业公司驱赶,这个公司专门将星球上的人们赶走后,不顾星球的存亡,疯狂得开采星球上的资源,导致有许多星球已经不适合人居住了。为了不让罗布鲁的星球遭到破坏,大雄决定留在星球上与坏蛋斗争到底……‍



‍General
ID                          : 1 (0x1)
Complete name               : H:\Doraemon Nobita no Uchuu Kaitakushi 1981 HDTV 1080i MPEG-2 3Audio-doraemon.ts
Format                      : MPEG-TS
File size                   : 12.4 GiB
Duration                    : 1 h 30 min
Overall bit rate mode       : Variable
Overall bit rate            : 19.5 Mb/s
Maximum Overall bit rate    : 35.5 Mb/s

Video
ID                          : 4113 (0x1011)
Menu ID                     : 1 (0x1)
Format                      : MPEG Video
Format version              : Version 2
Format profile              : Main@High
Format settings             : CustomMatrix / BVOP
Format settings, BVOP       : Yes
Format settings, Matrix     : Custom
Format settings, GOP        : Variable
Format settings, picture st : Frame
Codec ID                    : 2
Duration                    : 1 h 30 min
Bit rate mode               : Variable
Width                       : 1 920 pixels
Height                      : 1 080 pixels
Display aspect ratio        : 16:9
Frame rate                  : 29.970 (30000/1001) FPS
Color space                 : YUV
Chroma subsampling          : 4:2:0
Bit depth                   : 8 bits
Scan type                   : Interlaced
Scan order                  : Top Field First
Compression mode            : Lossy
Time code of first frame    : 00:00:00:00
Time code source            : Group of pictures header
GOP, Open/Closed            : Open
Color primaries             : BT.709
Transfer characteristics    : BT.709
Matrix coefficients         : BT.709

Audio #1
ID                          : 4352 (0x1100)
Menu ID                     : 1 (0x1)
Format                      : AAC
Format/Info                 : Advanced Audio Codec
Format version              : Version 2
Format profile              : LC
Muxing mode                 : ADTS
Codec ID                    : 15
Duration                    : 1 h 30 min
Channel(s)                  : 2 channels
Channel positions           : Front: L R
Sampling rate               : 48.0 kHz
Frame rate                  : 46.875 FPS (1024 SPF)
Compression mode            : Lossy
Language                    : Japanese

Audio #2
ID                          : 4353 (0x1101)
Menu ID                     : 1 (0x1)
Format                      : AC-3
Format/Info                 : Audio Coding 3
Codec ID                    : 129
Duration                    : 1 h 30 min
Bit rate mode               : Constant
Bit rate                    : 224 kb/s
Channel(s)                  : 2 channels
Channel positions           : Front: L R
Sampling rate               : 48.0 kHz
Frame rate                  : 31.250 FPS (1536 SPF)
Bit depth                   : 16 bits
Compression mode            : Lossy
Stream size                 : 145 MiB (1%)
Language                    : Chinese
Service kind                : Complete Main

Audio #3
ID                          : 4354 (0x1102)
Menu ID                     : 1 (0x1)
Format                      : AC-3
Format/Info                 : Audio Coding 3
Codec ID                    : 129
Duration                    : 1 h 30 min
Bit rate mode               : Constant
Bit rate                    : 192 kb/s
Channel(s)                  : 2 channels
Channel positions           : Front: L R
Sampling rate               : 48.0 kHz
Frame rate                  : 31.250 FPS (1536 SPF)
Bit depth                   : 16 bits
Compression mode            : Lossy
Stream size                 : 124 MiB (1%)
Language                    : Chinese
Service kind                : Complete Main‍


磁力下载:
Doraemon Nobita no Uchuu Kaitakushi 1981 HDTV 1080i MPEG-2 3Audio-doraemon.torrent
最新回复 (0)
全部楼主
返回