延边女士风味季 - 导演版.Ms yanbian season flavor- DC.2017.KR.HDRip.1920x1080p.x264.A 2016 韩国 剧情 HDTV/HDrip

admin 25天前 10

延边女士风味季 - 导演版.Ms yanbian season flavor- DC.2017.KR.HDRip.1920x1080p.x264.AAC-KOOK.[韩语中字] 2.97GB

无广告,无水印
不定时做种,保证出种,请耐心等待.

 

 

※※※※※※※ 影片信息 ※※※※※※※

◎片   名 延边女士风味季 - 导演版
◎译   名 Ms yanbian season flavor- DC
◎年   代 2018
◎国   家 韩国
◎类   别 情色
◎语   言 韩语
◎上映日 期 2018-01(韩国)
◎字   幕 简体字幕/繁体字幕
◎视频尺 寸  1920x1080p
◎片   长 1.03.53
◎主   演 白世莉

 

 
◎简  介


   女主风骚十足,跟男友玩各种制服诱惑,却又嫌男友没钱,因此勾搭了另外一个富二代,富二代也是个花花公子,对女主垂涎已久,于是这笔无耻的性交易就开始了,富二代和女主开始在各个地方疯狂做爱,各种姿势,女主虽然也有想过自己之前的男友,但是为了爱情,她似乎觉得这性福生活就是她的幸福...

 

 

※※※※※※※ 参数信息 ※※※※※※※

 

General
Unique ID                      : 243225443107579559766083928043935574207 (0xB6FB84338FE13E4CAADF17FB551128BF)

Format                         : Matroska
Format version                 : Version 4 / Version 2
File size                      : 2.97 GiB
Duration                       : 1 h 3 min
Overall bit rate               : 6 658 kb/s
Movie name                     : kook
Encoded date                   : UTC 2018-04-25 15:17:55
Writing application            : mkvmerge v9.4.2 ('So High') 64bit
Writing library                : libebml v1.3.4 + libmatroska v1.4.5
Attachments                    : 正式海报.jpg / fzlbjw.ttf / fzlbfw.ttf

Video
ID                             : 1
Format                         : AVC
Format/Info                    : Advanced Video Codec
Format profile                 : Baseline@L4
Format settings, CABAC         : No
Format settings, ReFrames      : 1 frame
Codec ID                       : V_MPEG4/ISO/AVC
Duration                       : 1 h 3 min
Bit rate                       : 6 513 kb/s
Width                          : 1 920 pixels
Height                         : 1 080 pixels
Display aspect ratio           : 16:9
Frame rate mode                : Constant
Frame rate                     : 23.976 (24000/1001) FPS
Color space                    : YUV
Chroma subsampling             : 4:2:0
Bit depth                      : 8 bits
Scan type                      : Progressive
Bits/(Pixel*Frame)             : 0.131
Stream size                    : 2.91 GiB (98%)
Default                        : Yes
Forced                         : No

Audio
ID                             : 2
Format                         : AAC
Format/Info                    : Advanced Audio Codec
Format profile                 : LC
Codec ID                       : A_AAC
Duration                       : 1 h 3 min
Bit rate                       : 124 kb/s
Channel(s)                     : 2 channels
Channel positions              : Front: L R
Sampling rate                  : 48.0 kHz
Frame rate                     : 46.875 FPS (1024 spf)
Compression mode               : Lossy
Stream size                    : 56.6 MiB (2%)
Default                        : Yes
Forced                         : No

Text #1
ID                             : 3
Format                         : ASS
Codec ID                       : S_TEXT/ASS
Codec ID/Info                  : Advanced Sub Station Alpha
Duration                       : 1 h 3 min
Bit rate                       : 47 b/s
Count of elements              : 359
Compression mode               : Lossless
Stream size                    : 21.9 KiB (0%)
Title                          : 简体字幕
Language                       : Chinese
Default                        : Yes
Forced                         : No

Text #2
ID                             : 4
Format                         : ASS
Codec ID                       : S_TEXT/ASS
Codec ID/Info                  : Advanced Sub Station Alpha
Duration                       : 1 h 3 min
Bit rate                       : 47 b/s
Count of elements              : 359
Compression mode               : Lossless
Stream size                    : 21.9 KiB (0%)
Title                          : 繁体字幕
Language                       : Chinese
Default                        : No
Forced                         : No

 

 


磁力下载:magnet:?xt=urn:btih:3FC864E7F1B61B779A7FF92E4B1467497EA1BB49
延边女士风味季 - 导演版.Ms yanbian season flavor- DC.2017.KR.HDRip.1920x1080p.x264.AAC-KOOK.[韩语中字].torrent
最新回复 (0)
全部楼主
返回