贪婪:欲望之岛.Island Of Desire.2017.KR.HDRip.1920x1080p.x264.AAC-KOOK.[韩语中字] 2.3 2017 韩国 惊悚 HDTV/HDrip


贪婪:欲望之岛.Island Of Desire.2017.KR.HDRip.1920x1080p.x264.AAC-KOOK.[韩语中字] 2.38GB

 

无广告,无水印
不定时做种,保证出种,请耐心等待.

 

 

 

※※※※※※※ 影片信息 ※※※※※※※

◎片   名 贪婪:欲望之岛
◎译   名 Island Of Desire
◎年   代 2017
◎国   家 韩国
◎类   别 剧情 / 情色
◎语   言 韩语
◎上映日 期 2017-05-01(韩国)
◎字   幕 简体字幕/繁体字幕
◎豆瓣 评分  5.5/10 from 318 users
◎视频尺 寸  1920x1080p
◎片   长 1.21.21
◎主   演 金花媛 / 朴初炫

 

 
◎简  介


    一群年轻人来到一个小岛游览,不想这里以前是个军事基地,处处隐藏危机,等待他们命运是什么.....

 

 

※※※※※※※ 参数信息 ※※※※※※※

 

General
Unique ID                      : 248836964845766691411952627720945108134 (0xBB344195736D8168955D8BB59B8B84A6)

Format                         : Matroska
Format version                 : Version 4 / Version 2
File size                      : 2.39 GiB
Duration                       : 1 h 21 min
Overall bit rate               : 4 205 kb/s
Movie name                     : kook
Encoded date                   : UTC 2018-04-25 14:39:27
Writing application            : mkvmerge v9.4.2 ('So High') 64bit
Writing library                : libebml v1.3.4 + libmatroska v1.4.5
Attachments                    : 正式海报.jpg / fzlbfw.ttf / fzlbjw.ttf

Video
ID                             : 1
Format                         : AVC
Format/Info                    : Advanced Video Codec
Format profile                 : Baseline@L5.1
Format settings, CABAC         : No
Format settings, ReFrames      : 1 frame
Codec ID                       : V_MPEG4/ISO/AVC
Duration                       : 1 h 21 min
Bit rate                       : 3 868 kb/s
Width                          : 1 920 pixels
Height                         : 1 080 pixels
Display aspect ratio           : 16:9
Frame rate mode                : Variable
Frame rate                     : 23.976 FPS
Color space                    : YUV
Chroma subsampling             : 4:2:0
Bit depth                      : 8 bits
Scan type                      : Progressive
Bits/(Pixel*Frame)             : 0.078
Stream size                    : 2.20 GiB (92%)
Writing library                : x264 core 148 r2744 b97ae06
Encoding settings              : cabac=0 / ref=1 / deblock=1:0:0 / analyse=0x1:0x111 / me=hex / subme=2 / psy=1 / psy_rd=1.00:0.00 / mixed_ref=0 / me_range=16 / chroma_me=1 / trellis=0 / 8x8dct=0 / cqm=0 / deadzone=21,11 / fast_pskip=1 / chroma_qp_offset=0 / threads=6 / lookahead_threads=2 / sliced_threads=0 / nr=0 / decimate=1 / interlaced=0 / bluray_compat=0 / constrained_intra=0 / bframes=0 / weightp=0 / keyint=250 / keyint_min=25 / scenecut=40 / intra_refresh=0 / rc_lookahead=10 / rc=crf / mbtree=1 / crf=23.0 / qcomp=0.60 / qpmin=0 / qpmax=69 / qpstep=4 / ip_ratio=1.40 / aq=1:1.00
Default                        : Yes
Forced                         : No

Audio
ID                             : 2
Format                         : AAC
Format/Info                    : Advanced Audio Codec
Format profile                 : LC
Codec ID                       : A_AAC
Duration                       : 1 h 21 min
Bit rate                       : 320 kb/s
Channel(s)                     : 2 channels
Channel positions              : Front: L R
Sampling rate                  : 48.0 kHz
Frame rate                     : 46.875 FPS (1024 spf)
Compression mode               : Lossy
Delay relative to video        : -66 ms
Stream size                    : 186 MiB (8%)
Default                        : Yes
Forced                         : No

Text #1
ID                             : 3
Format                         : ASS
Codec ID                       : S_TEXT/ASS
Codec ID/Info                  : Advanced Sub Station Alpha
Duration                       : 1 h 20 min
Bit rate                       : 73 b/s
Count of elements              : 759
Compression mode               : Lossless
Stream size                    : 43.1 KiB (0%)
Title                          : 简体字幕
Language                       : Chinese
Default                        : Yes
Forced                         : No

Text #2
ID                             : 4
Format                         : ASS
Codec ID                       : S_TEXT/ASS
Codec ID/Info                  : Advanced Sub Station Alpha
Duration                       : 1 h 20 min
Bit rate                       : 73 b/s
Count of elements              : 759
Compression mode               : Lossless
Stream size                    : 43.1 KiB (0%)
Title                          : 繁体字幕
Language                       : Chinese
Default                        : No
Forced                         : No

 


磁力下载:magnet:?xt=urn:btih:8C20E5EF29F584900B6FA7162E22F89E29F2C36A
贪婪:欲望之岛.Island Of Desire.2017.KR.HDRip.1920x1080p.x264.AAC-KOOK.[韩语中字].torrent
还没有人收藏过本帖~
最新回复 (0)
全部楼主

你可以在 登录 or 注册 后,对此帖发表评论!

返回