一九四二 Back.to.1942.2012.1080p.BluRay.X264-aBD 9.83GB 2012 大陆 历史 BD-1080P


Back.to.1942.2012.1080p.BluRay.X264-aBD

◎译  名 温故1942/温故一九四二

◎片  名 一九四二

◎年  代 2012

◎产  地 中国大陆

◎类  别 剧情/历史/战争/灾难

◎语  言 河南方言/英语/日语/汉语普通话

◎上映日期 2012-11-11(罗马电影节)/2012-11-29(中国大陆)

◎IMDb评分  6.9/10 from 2,668 users

◎IMDb链接  http://www.imdb.com/title/tt2113822/

◎豆瓣评分 7.4/10 from 149,870 users

◎豆瓣链接 https://movie.douban.com/subject/6011805/

◎片  长 146分钟

◎导  演 冯小刚 Xiaogang Feng

◎主  演 张国立 Guoli Zhang

      张默 Mo Zhang

      徐帆 Fan Xu

      李雪健 Xuejian Li

      陈道明 Daoming Chen

      艾德里安·布洛迪 Adrien Brody

      蒂姆·罗宾斯 Tim Robbins

      冯远征 Yuanzheng Feng

      张涵予 Hanyu Zhang

      王子文 Ziwen Wang

      段奕宏 Yihong Duan

      范伟 Wei Fan

      柯蓝 Michelle

      张国强 Guoqiang Zhang

      林永健 Yongjian Lin

      乔振宇 Zhenyu Qiao

      李倩 Qian Li

      赵毅 Yi Zhao


◎简  介


  1942年,抗日战争与第二次世界大战正处于白热化阶段。燎原之火,生灵涂炭,天灾人祸,哀鸿遍野。当军事家和政治家的目光聚焦在一城一郭的征伐劫掠之时,几乎鲜少有人注意到古老的中原河南正爆发一场惨绝人寰的大旱灾。影片的主角老东家(张国立 饰),狡猾、市侩,典型的封建地主,可即便如此也无法对抗这史无前例的灾难,他被迫逃荒,亲眼见证着儿子、儿媳、老伴等亲人的种种死状。他的遭遇是三百万灾民的缩影,面对这群人的苦难,无论是高高在上的蒋委员长(陈道明 饰),还是深入民间报道灾难真相的美国记者白修德(阿德里安•布劳迪 Adrien Brody 饰),以及海内外的每一个人,如何能从这眼前的人间炼狱之景侧目。绝望无止的逃生坎途,中华民族多舛命运的苦难一斑……

  本片根据刘震云的小说《温故一九四二》改编。


◎获奖情况


  第50届台北金马影展  (2013)

  金马奖 最佳男配角 李雪健

  金马奖 最佳改编剧本(提名) 刘震云

  金马奖 最佳摄影(提名) 吕乐

  金马奖 最佳美术设计(提名) 石海鹰

  金马奖 最佳造型设计(提名) 叶锦添

  金马奖 最佳视觉效果(提名) 常松


  第32届香港电影金像奖  (2013)

  最佳两岸华语电影


  第29届中国电影金鸡奖  (2013)

  最佳故事片(提名)

  最佳导演(提名) 冯小刚

  最佳改编剧本 刘震云

  最佳男主角 张国立


  第3届北京国际电影节  (2013)

  天坛奖 最佳影片奖 冯小刚

  天坛奖 最佳视觉效果奖


  第13届华语电影传媒大奖  (2013)

  百家传媒年度致敬电影人(提名) 冯小刚

  百家传媒年度致敬电影

  最佳男配角(提名) 李雪健

  最佳编剧 刘震云


  第20届北京大学生电影节  (2013)

  最佳影片奖


  第3届豆瓣电影鑫像奖  (2013)

  鑫豆单元 最佳影片(华语)(提名)

  鑫豆单元 最佳男演员(华语)(提名) 张国立


Video
ID                                       : 1
Format                                   : AVC
Format/Info                              : Advanced Video Codec
Format profile                           : High@L4.1
Format settings                          : CABAC / 5 Ref Frames
Format settings, CABAC                   : Yes
Format settings, ReFrames                : 5 frames
Codec ID                                 : V_MPEG4/ISO/AVC
Duration                                 : 2 h 26 min
Bit rate                                 : 8 100 kb/s
Width                                    : 1 920 pixels
Height                                   : 800 pixels
Display aspect ratio                     : 2.40:1
Frame rate mode                          : Constant
Frame rate                               : 24.000 FPS
Color space                              : YUV
Chroma subsampling                       : 4:2:0
Bit depth                                : 8 bits
Scan type                                : Progressive
Bits/(Pixel*Frame)                       : 0.220
Stream size                              : 8.09 GiB (82%)
Writing library                          : x264 core 130 r2273 b3065e6
Encoding settings                        : cabac=1 / ref=5 / deblock=1:-1:-1 / analyse=0x3:0x113 / me=umh / subme=7 / psy=1 / psy_rd=1.00:0.00 / mixed_ref=1 / me_range=16 / chroma_me=1 / trellis=1 / 8x8dct=1 / cqm=0 / deadzone=21,11 / fast_pskip=1 / chroma_qp_offset=-2 / threads=12 / lookahead_threads=2 / sliced_threads=0 / nr=0 / decimate=1 / interlaced=0 / bluray_compat=0 / constrained_intra=0 / bframes=3 / b_pyramid=2 / b_adapt=2 / b_bias=0 / direct=3 / weightb=1 / open_gop=0 / weightp=2 / keyint=250 / keyint_min=24 / scenecut=40 / intra_refresh=0 / rc_lookahead=40 / rc=2pass / mbtree=1 / bitrate=8100 / ratetol=1.0 / qcomp=0.60 / qpmin=0 / qpmax=69 / qpstep=4 / cplxblur=20.0 / qblur=0.5 / vbv_maxrate=50000 / vbv_bufsize=50000 / nal_hrd=none / ip_ratio=1.40 / aq=1:1.00
Language                                 : Chinese
Default                                  : Yes
Forced                                   : No

Audio
ID                                       : 2
Format                                   : DTS
Format/Info                              : Digital Theater Systems
Codec ID                                 : A_DTS
Duration                                 : 2 h 26 min
Bit rate mode                            : Constant
Bit rate                                 : 1 509 kb/s
Channel(s)                               : 6 channels
Channel positions                        : Front: L C R, Side: L R, LFE
Sampling rate                            : 48.0 kHz
Frame rate                               : 93.750 FPS (512 SPF)
Bit depth                                : 16 bits
Compression mode                         : Lossy
Stream size                              : 1.54 GiB (16%)
Language                                 : Chinese
Default                                  : Yes
Forced                                   : No

Text
ID                                       : 3
Format                                   : UTF-8
Codec ID                                 : S_TEXT/UTF8
Codec ID/Info                            : UTF-8 Plain Text
Language                                 : English
Default                                  : Yes
Forced                                   : No



磁力下载:magnet:?xt=urn:btih:CE6640C8B2F18958FCE3E88CBFCEFA9A23B19392
Back.to.1942.2012.1080p.BluRay.X264-aBD[btyuan.com].torrent
还没有人收藏过本帖~
最新回复 (0)
全部楼主

你可以在 登录 or 注册 后,对此帖发表评论!

返回