新警察故事 New.Police.Story.2004.1080p.BluRay.x264-Japhson 7.95GB 更早 香港 动作 BD-1080P

admin 7天前 10 只看Ta

New.Police.Story.2004.1080p.BluRay.x264-Japhson

◎译  名 NewPoliceStory

◎片  名 新警察故事

◎年  代 2004

◎产  地 中国大陆/香港

◎类  别 动作/犯罪/剧情/惊悚

◎语  言 英语/汉语普通话/粤语

◎上映日期 2004-09-24(中国大陆)

◎IMDb评分  7.0/10 from 21,532 users

◎IMDb链接  http://www.imdb.com/title/tt0386005/

◎豆瓣评分 7.3/10 from 142,373 users

◎豆瓣链接 https://movie.douban.com/subject/1306160/

◎片  长 123分钟

◎导  演 陈木胜 Benny Chan

◎主  演 成龙 Jackie Chan

      谢霆锋 Nicholas Tse

      杨采妮 Charlie Yeung

      蔡卓妍 Charlene Choi

      吴彦祖 Daniel Wu

      安志杰 Andy On

      尹子维 Terence Yin

      王杰 Dave Wong

      于荣光 Rongguang Yu

      叶山豪 Hayama Go

      蒋怡 Coco Chiang

      伍允龙 Philip Ng

      孙淳 Chun Sun


◎简  介


  陈国荣(成龙 饰)的所在那一组警察是警队精英,破案无数。阿祖(吴彦祖 饰)是总警师的儿子,却勾结了几个高官子弟( 蒋怡丶尹子维丶安志杰丶叶山豪)挑战警方。他们到银行抢劫,警钟敲响警察赶到时,就把阿荣及队员带进了一个早已设计好的空旷仓库里。警员都陷进了匪徒早已设计好的游戏程序里,残忍的被杀害,连阿荣女朋友可颐 (杨采妮 饰)的弟弟也被无法幸免。阿荣就此被停职,出于内疚也跟可颐分手了。 终日喝得烂醉的阿荣在酒吧遇到了阿锋(谢霆锋 饰),阿锋为了使阿荣振作起来,决定假扮警察告诉阿荣自己是上司派来要求得到阿荣协助翻案的新警员。 阿荣又遇到那群狠狠打击他的罪犯,与他们斗志斗勇,在警花莎莎(蔡卓妍 饰)的协助下知道匪徒当年的事件被编成了一部游戏,同时也知道了当年为何情报被泄漏的原因。


◎获奖情况


  第41届台北金马影展  (2004)

  金马奖 最佳男配角 吴彦祖

  金马奖 最佳美术设计(提名) 黄锐民 / 王晶晶 / 赵崇邦

  金马奖 最佳动作设计 李忠志

  金马奖 最佳剪辑(提名) 邱志伟

  金马奖 最佳音效(提名) 曾景祥

  金马奖 最佳视觉效果 何志辉 / 黄宏达

  观众票选最佳影片


  第24届香港电影金像奖  (2005)

  最佳电影(提名)

  最佳导演(提名) 陈木胜

  最佳男主角(提名) 成龙

  最佳男配角(提名) 吴彦祖

  最佳剪接(提名) 邱志伟

  最佳动作设计(提名) 李忠志

  最佳音响效果(提名) 曾景祥

  最佳视觉效果(提名) 何志辉 / 黄宏达


  第25届中国电影金鸡奖  (2005)

  最佳故事片(提名)

  最佳男主角 成龙

  最佳男配角(提名) 吴彦祖

  最佳录音(提名) 曾景祥


  第28届大众电影百花奖  (2006)

  最佳故事片(提名)

  最佳男主角(提名) 成龙

  最佳男配角 谢霆锋


  第11届中国电影华表奖  (2005)

  优秀合拍片奖(提名)


  第7届中国长春电影节  (2005)

  金鹿奖 最佳华语故事片(提名)

  金鹿奖 票房价值奖


  第5届华语电影传媒大奖  (2005)

  百家传媒年度致敬电影(提名)


  第12届北京大学生电影节  (2005)

  最佳男演员奖(提名) 成龙

  最佳观赏效果奖(提名)


Video
ID                                       : 1
Format                                   : AVC
Format/Info                              : Advanced Video Codec
Format profile                           : High@L4.1
Format settings                          : CABAC / 4 Ref Frames
Format settings, CABAC                   : Yes
Format settings, ReFrames                : 4 frames
Codec ID                                 : V_MPEG4/ISO/AVC
Duration                                 : 2 h 2 min
Bit rate                                 : 8 485 kb/s
Width                                    : 1 920 pixels
Height                                   : 832 pixels
Display aspect ratio                     : 2.35:1
Frame rate mode                          : Constant
Frame rate                               : 23.976 FPS
Color space                              : YUV
Chroma subsampling                       : 4:2:0
Bit depth                                : 8 bits
Scan type                                : Progressive
Bits/(Pixel*Frame)                       : 0.222
Stream size                              : 7.28 GiB (92%)
Writing library                          : x264 core 59 r859M ce13bb6
Encoding settings                        : cabac=1 / ref=4 / deblock=1:-2:-1 / analyse=0x3:0x113 / me=umh / subme=6 / me-prepass=0 / brdo=1 / mixed_ref=1 / me_range=16 / chroma_me=1 / trellis=1 / 8x8dct=1 / cqm=0 / deadzone=21,11 / chroma_qp_offset=0 / threads=6 / nr=0 / decimate=1 / mbaff=0 / fgo=0 / bframes=3 / b_pyramid=1 / b_adapt=1 / b_bias=0 / direct=3 / wpredb=1 / bime=1 / keyint=250 / keyint_min=25 / scenecut=40(pre) / rc=2pass / bitrate=8485 / ratetol=1.0 / rceq=\'blurCplx^(1-qComp)\' / qcomp=1.00 / qpmin=10 / qpmax=51 / qpstep=4 / cplxblur=20.0 / qblur=0.5 / ip_ratio=1.40 / pb_ratio=1.30 / aq=2:1.00
Language                                 : Chinese
Default                                  : Yes
Forced                                   : No

Audio
ID                                       : 2
Format                                   : DTS
Format/Info                              : Digital Theater Systems
Codec ID                                 : A_DTS
Duration                                 : 2 h 2 min
Bit rate mode                            : Constant
Bit rate                                 : 768 kb/s
Channel(s)                               : 6 channels
Channel positions                        : Front: L C R, Side: L R, LFE
Sampling rate                            : 48.0 kHz
Frame rate                               : 93.750 FPS (512 SPF)
Bit depth                                : 16 bits
Compression mode                         : Lossy
Stream size                              : 675 MiB (8%)
Language                                 : Chinese
Default                                  : Yes
Forced                                   : No

Text
ID                                       : 3
Format                                   : UTF-8
Codec ID                                 : S_TEXT/UTF8
Codec ID/Info                            : UTF-8 Plain Text
Duration                                 : 1 h 58 min
Bit rate                                 : 30 b/s
Count of elements                        : 1132
Stream size                              : 26.2 KiB (0%)
Title                                    : English
Language                                 : English
Default                                  : Yes
Forced                                   : Yes





磁力下载:magnet:?xt=urn:btih:0264244B48341BD34C6CE404038D4D53F6B1516E
New.Police.Story.2004.1080p.BluRay.x264-Japhson[btyuan.com].torrent
最新回复 (0)
全部楼主
返回