玉蒲团之偷情宝鉴 Sex.And.Zen.1991.1080p.BluRay.x264-aBD 6.55GB 更早 香港 剧情 BD-1080P


Sex.And.Zen.1991.1080p.BluRay.x264-aBD

◎译  名 玉蒲团之偷情宝鉴/SexandZen

◎片  名 玉蒲團之偷情寶鑑

◎年  代 1991

◎产  地 香港

◎类  别 古装/情色

◎语  言 粤语

◎上映日期 1991-11-30

◎豆瓣评分 6.5/10 from 4,189 users

◎豆瓣链接 https://movie.douban.com/subject/14016168/

◎片  长 94分钟

◎导  演 麦当杰 Michael Mak

◎主  演 吴启华 Lawrence Ng

      郑则仕 Kent Cheng

      徐锦江 Elvis Tsui

      叶子楣 Amy Yip

      周弘 Isabella Chow

      村上丽奈 Rena Murakami


◎简  介


  未央生(吴启华 饰)自认为风流倜傥一表人才,在他看来,凭借着自己的才识与外貌,通天下美女享尽鱼水之欢简直不是梦想。然而,一位老僧却告诉未央生,根据应果报应的定律,他如今所作的荒诞淫乱的一切,最后终将报应到他和他的家人身上。

  尽管并不相信老僧所言,但未央生的内心里还是有一丝隐隐的不安,于是,他娶了大户人家的女儿(叶子楣 饰)为妻,希望贤良淑德的她能够守好死自己的本分。婚后,眼看着一切都风平浪静的未央生放下心来,开始了自己花天酒地的荒淫生活,甚至让屠户(郑则仕 饰)帮助自己改造下体,以获得更大的快感。而之后发生的一切,令未央生想起一句老话——不是不报,时候未到。


Video
ID                                       : 1
Format                                   : AVC
Format/Info                              : Advanced Video Codec
Format profile                           : High@L4.1
Format settings                          : CABAC / 4 Ref Frames
Format settings, CABAC                   : Yes
Format settings, ReFrames                : 4 frames
Muxing mode                              : Header stripping
Codec ID                                 : V_MPEG4/ISO/AVC
Duration                                 : 1 h 34 min
Bit rate                                 : 9 323 kb/s
Width                                    : 1 920 pixels
Height                                   : 1 040 pixels
Display aspect ratio                     : 1.85:1
Frame rate mode                          : Constant
Frame rate                               : 23.976 (24000/1001) FPS
Color space                              : YUV
Chroma subsampling                       : 4:2:0
Bit depth                                : 8 bits
Scan type                                : Progressive
Bits/(Pixel*Frame)                       : 0.195
Stream size                              : 6.00 GiB (92%)
Writing library                          : x264 core 115 r1937 aa21558
Encoding settings                        : cabac=1 / ref=4 / deblock=1:-1:-1 / analyse=0x3:0x113 / me=umh / subme=7 / psy=1 / psy_rd=1.00:0.00 / mixed_ref=1 / me_range=16 / chroma_me=1 / trellis=1 / 8x8dct=1 / cqm=0 / deadzone=21,11 / fast_pskip=1 / chroma_qp_offset=-2 / threads=12 / sliced_threads=0 / nr=0 / decimate=1 / interlaced=0 / bluray_compat=0 / constrained_intra=0 / bframes=3 / b_pyramid=2 / b_adapt=2 / b_bias=0 / direct=3 / weightb=1 / open_gop=0 / weightp=2 / keyint=250 / keyint_min=23 / scenecut=40 / intra_refresh=0 / rc_lookahead=40 / rc=2pass / mbtree=1 / bitrate=9323 / ratetol=1.0 / qcomp=0.60 / qpmin=0 / qpmax=69 / qpstep=4 / cplxblur=20.0 / qblur=0.5 / vbv_maxrate=50000 / vbv_bufsize=50000 / nal_hrd=none / ip_ratio=1.40 / aq=1:1.00
Language                                 : Chinese
Default                                  : Yes
Forced                                   : Yes

Audio
ID                                       : 2
Format                                   : AC-3
Format/Info                              : Audio Coding 3
Muxing mode                              : Header stripping
Codec ID                                 : A_AC3
Duration                                 : 1 h 34 min
Bit rate mode                            : Constant
Bit rate                                 : 640 kb/s
Channel(s)                               : 6 channels
Channel positions                        : Front: L C R, Side: L R, LFE
Sampling rate                            : 48.0 kHz
Frame rate                               : 31.250 FPS (1536 SPF)
Bit depth                                : 16 bits
Compression mode                         : Lossy
Stream size                              : 431 MiB (6%)
Language                                 : Chinese
Service kind                             : Complete Main
Default                                  : Yes
Forced                                   : Yes

Text
ID                                       : 3
Format                                   : UTF-8
Codec ID                                 : S_TEXT/UTF8
Codec ID/Info                            : UTF-8 Plain Text
Language                                 : English
Default                                  : Yes
Forced                                   : No




磁力下载:magnet:?xt=urn:btih:1A6E1CADEF3CE904A90AFD17E567CB079716AB3E
Sex.And.Zen.1991.1080p.BluRay.x264-aBD[btyuan.com].torrent
还没有人收藏过本帖~
最新回复 (0)
全部楼主

你可以在 登录 or 注册 后,对此帖发表评论!

返回