白百合.White Lily.2016.JP.BluRay.1920x1038p.x264.AC3-KOOK.[日语中字] 6.01GB 2016 日本 剧情 BD-1080P

admin 3月前 50

白百合.White Lily.2016.JP.BluRay.1920x1038p.x264.AC3-KOOK.[日语中字] 6.01GB

无广告,无水印,
不定时做种,保证出种,请耐心等待.

 

※※※※※※※ 影片信息 ※※※※※※※

◎片   名 ホワイトリリー
◎译   名 白百合 / 禁断之百合(港) / 白百合之恋(台) / White Lily
◎年   代 2016
◎国   家 日本
◎类   别 情色 / 同性
◎语   言 日语
◎上映日 期 2016-11-26(日本)
◎字   幕 简体字幕/繁体字幕
◎IMDB 评分  5.1/10 from 114 users
◎豆瓣 评分  4.9/10 from 1389 users
◎视频尺 寸  1920x1038p
◎片   长 1.20.18
◎导   演 中田秀夫
◎编   剧  加藤淳也 / 三宅隆太
◎主   演 飞鸟凛 / 山口香绪里 / 町井祥真 / 西川可奈子 / 三上市朗

 

日活「粉红映画」诞生四十五周年 「Roman Porno Reboot」计划 五部之四

 
◎简  介


  电影公司「日活」创业百年,最具代表性的一个品牌,是在七、 八十年代风靡一时的「粉红映画」(日文叫Roman Porno,海外称之为Pink Movie),亦即是浪漫化的成人电影。今年适逢「粉红映画」诞生四十五周年,「日活」特别筹划了「Roman Porno Reboot」计划,找来园子温、行定勳、中田秀夫、盐田明彦、白石和弥五位名导操刀,各拍一部粉红片。五人要跟足过往的游戏规则:每十分钟要有一场情慾戏、片长必须在七十至八十分钟之间、一律只有很低的製作费、要一星期内完成拍摄,其他一切自由发挥。结果证明五位导演不但玩得起,而且还玩得极有一手。
  盐田的《湿濡的女人》最先曝光,重新演绎「粉红」经典《湿濡的恋人们》,讲野性少女在海边故意湿身,然后贱价卖身给路过的男人。白石执导的《雌猫们》同样向经典《雌猫们之夜》致敬,新版搬到池袋街头上演,讲在网吧打趸的难民、单亲妈妈和不育人妻在夜间浪荡的性活动。行定勳的《撩乱的裸舞曲》则是原创故事,谐星板尾创路演脑闭塞导演,陷入了女色陷阱,搞到身败名裂。《午夜凶铃》导演中田秀夫初战成人世界,打动了九十后女优飞鸟凛全裸演出女同志故事《白百合》。向来出位的园子温就尽展其反叛本色,以毒攻毒,用色情反色情拍了《Antiporno》,找来前AKB成员富手麻妙首次全裸主演。
  「粉红映画」之所以留名几十年,是因为「淫」得有道,成本低但剧本扎实,而且是当时年轻新导磨练技艺的修罗场,《礼仪师》奥斯卡导演泷田洋二郎、《谈谈情,跳跳舞》的周防正行、《死亡笔记》的金子修介、《后乐园》已故导演森田芳光等大导出道时都拍过粉红片。停产了廿八年的粉红系列今次一口气推出五片,别具意义,将陆续于十一月底起在日本上映。

 

 

※※※※※※※ 参数信息 ※※※※※※※

 

General
Unique ID                      : 205572372268710198455948115000425753368 (0x9AA7CC7AD23ABDD084DB9F46E714AB18)

Format                         : Matroska
Format version                 : Version 4 / Version 2
File size                      : 6.01 GiB
Duration                       : 1 h 20 min
Overall bit rate               : 10.7 Mb/s
Movie name                     : kook
Encoded date                   : UTC 2018-04-12 12:30:56
Writing application            : mkvmerge v9.4.2 ('So High') 64bit
Writing library                : libebml v1.3.4 + libmatroska v1.4.5
Attachments                    : 正式海报 日本.jpg / fzlbjw.ttf / fzlbfw.ttf

Video
ID                             : 1
Format                         : AVC
Format/Info                    : Advanced Video Codec
Format profile                 : High@L4.1
Format settings, CABAC         : Yes
Format settings, ReFrames      : 4 frames
Codec ID                       : V_MPEG4/ISO/AVC
Duration                       : 1 h 20 min
Bit rate                       : 10.3 Mb/s
Width                          : 1 920 pixels
Height                         : 1 038 pixels
Display aspect ratio           : 1.85:1
Frame rate mode                : Constant
Frame rate                     : 23.976 (24000/1001) FPS
Color space                    : YUV
Chroma subsampling             : 4:2:0
Bit depth                      : 8 bits
Scan type                      : Progressive
Bits/(Pixel*Frame)             : 0.215
Stream size                    : 5.75 GiB (96%)
Writing library                : x264 core 129 r2245+704+36 8e61944 tMod+MixAQ [8-bit@4:2:0 X86_64]
Encoding settings              : cabac=1 / ref=4 / deblock=1:-3:-3 / analyse=0x3:0x133 / me=umh / subme=11 / psy=1 / fade_compensate=0.00 / psy_rd=1.05:0.10 / mixed_ref=1 / me_range=64 / chroma_me=1 / trellis=2 / 8x8dct=1 / cqm=0 / deadzone=21,11 / fast_pskip=0 / chroma_qp_offset=-3 / threads=18 / lookahead_threads=3 / sliced_threads=0 / nr=0 / decimate=0 / interlaced=0 / bluray_compat=0 / constrained_intra=0 / fgo=0 / bframes=10 / b_pyramid=2 / b_adapt=2 / b_bias=0 / direct=3 / weightb=1 / open_gop=0 / weightp=2 / keyint=250 / keyint_min=23 / scenecut=40 / intra_refresh=0 / rc=2pass / mbtree=0 / bitrate=10252 / ratetol=1.0 / qcomp=0.70 / qpmin=0 / qpmax=69 / qpstep=4 / cplxblur=20.0 / qblur=0.5 / ip_ratio=1.40 / pb_ratio=1.30 / aq=1 / aq-strength=0.90 / aq-sensitivity=10.00 / aq-ifactor=1.00 / aq-pfactor=1.00 / aq-bfactor=1.00 / aq2=0
Language                       : Japanese
Default                        : Yes
Forced                         : No

Audio
ID                             : 2
Format                         : AC-3
Format/Info                    : Audio Coding 3
Mode extension                 : CM (complete main)
Format settings, Endianness    : Big
Codec ID                       : A_AC3
Duration                       : 1 h 20 min
Bit rate mode                  : Constant
Bit rate                       : 448 kb/s
Channel(s)                     : 6 channels
Channel positions              : Front: L C R, Side: L R, LFE
Sampling rate                  : 48.0 kHz
Frame rate                     : 31.250 FPS (1536 spf)
Compression mode               : Lossy
Stream size                    : 257 MiB (4%)
Language                       : Japanese
Default                        : Yes
Forced                         : No

Text #1
ID                             : 3
Format                         : ASS
Codec ID                       : S_TEXT/ASS
Codec ID/Info                  : Advanced Sub Station Alpha
Duration                       : 1 h 20 min
Bit rate                       : 61 b/s
Count of elements              : 613
Compression mode               : Lossless
Stream size                    : 36.0 KiB (0%)
Title                          : 简体字幕
Language                       : Chinese
Default                        : Yes
Forced                         : No

Text #2
ID                             : 4
Format                         : ASS
Codec ID                       : S_TEXT/ASS
Codec ID/Info                  : Advanced Sub Station Alpha
Duration                       : 1 h 20 min
Bit rate                       : 61 b/s
Count of elements              : 613
Compression mode               : Lossless
Stream size                    : 36.0 KiB (0%)
Title                          : 繁体字幕
Language                       : Chinese
Default                        : No
Forced                         : No

Menu
00:00:00.000                   : en:00:00:00.000
00:17:23.667                   : en:00:17:23.667
00:28:42.846                   : en:00:28:42.846
00:43:28.772                   : en:00:43:28.772
00:59:43.997                   : en:00:59:43.997
01:09:41.135                   : en:01:09:41.135
01:20:16.353                   : en:01:20:16.353

 


磁力下载:magnet:?xt=urn:btih:93E7BE1640CCCBEBD5717DAB5B00D2E474246A0D
白百合.White Lily.2016.JP.BluRay.1920x1038p.x264.AC3-KOOK.[日语中字].torrent
最新回复 (0)
全部楼主

你可以在 登录 or 注册 后,对此帖发表评论!

返回