北京遇上西雅图 Finding.Mr.Right.2013.1080p.BluRay.X264-aBD 7.6GB 2013 香港 爱情 BD-1080P

admin 3月前 35

Finding.Mr.Right.2013.1080p.BluRay.X264-aBD

◎译  名 美丽有缘/情定西雅图

◎片  名 北京遇上西雅图

◎年  代 2013

◎产  地 中国大陆/香港

◎类  别 喜剧/爱情

◎语  言 汉语普通话/英语/闽南语

◎上映日期 2013-03-21(中国大陆)/2016-03-29(重映)

◎IMDb评分  6.4/10 from 1,792 users

◎IMDb链接  http://www.imdb.com/title/tt2169322/

◎豆瓣评分 7.4/10 from 386,119 users

◎豆瓣链接 https://movie.douban.com/subject/10574468/

◎ http://www.btbtt.co 

◎片  长 123分钟

◎导  演 薛晓路 Xiaolu Xue

◎主  演 汤唯 Wei Tang

      吴秀波 Xiubo Wu

      海清 Hai-Qing

      宋美曼 Meiman Song

      宋美慧 Meihui Song

      金燕玲 Elaine Jin

      买红妹 Hongmei Mai

      布莱德·汉特 Brad Harder

      李绮虹 Theresa Lee


◎简  介


  “败金女”文佳佳(汤唯 饰)曾经是美食杂志编辑,对爱情充满了像电影《西雅图夜未眠》一样的浪漫幻想。而在现实中,为了给自己的孩子一个“美利坚公民”的身份,她不远万里只身来到西雅图的月子中心待产生子。

  在月子中心,文佳佳炫富的作风引发了房东(金燕玲 饰)和其他孕妇周逸(海清 饰)、陈悦(买红妹 饰)的反感,倍感孤独的她只能向司机郝志Frank(吴秀波 饰)倾诉心声。而看上去木讷老实的“落魄叔”Frank并不是一个平庸的男子,他在中国曾是一位一流的心血管疾病方面的名医。在相处中,Frank的体贴包容渐渐融化着文佳佳的刁蛮任性。当文佳佳的富豪男友突然失踪后,一夜之间变成穷人的文佳佳得到了Frank无微不至的照顾,跟Frank和他的女儿Julie(宋美曼 & 宋美慧 饰)一起生活的这段日子,让文佳佳找到了家的温暖。

  当经历了变故的文佳佳,生下了孩子,就要结束她在西雅图的颠沛之旅时,她与Frank之间已经产生了微妙的化学变化,这时的她才发现自己真正追求的爱情是什么。离开西雅图并不代表结束,离开是下一次相遇的开始……


◎获奖情况


  第33届香港电影金像奖  (2014)

  最佳编剧(提名) 薛晓路

  最佳女主角(提名) 汤唯


  第32届大众电影百花奖  (2014)

  最佳故事片(提名)

  最佳导演(提名) 薛晓路

  最佳编剧(提名) 薛晓路

  最佳男主角(提名) 吴秀波

  最佳女主角(提名) 汤唯

  最佳女配角(提名) 海清


  第14届华语电影传媒大奖  (2014)

  观众票选最受瞩目电影

  最佳男主角(提名) 吴秀波

  最佳女配角(提名) 海清

  最佳新导演(提名) 薛晓路


  第21届北京大学生电影节  (2014)

  最佳影片奖(提名)


  第4届豆瓣电影鑫像奖  (2014)

  鑫豆单元 最佳影片(华语)(提名)

  鑫豆单元 最佳男演员(华语)(提名) 吴秀波

  鑫豆单元 最佳女演员(华语)(提名) 汤唯

  鑫豆单元 最佳喜剧片

  鑫豆单元 最佳爱情片(提名)


Video
ID                                       : 1
Format                                   : AVC
Format/Info                              : Advanced Video Codec
Format profile                           : High@L4.1
Format settings                          : CABAC / 5 Ref Frames
Format settings, CABAC                   : Yes
Format settings, ReFrames                : 5 frames
Codec ID                                 : V_MPEG4/ISO/AVC
Duration                                 : 2 h 2 min
Bit rate                                 : 8 535 kb/s
Width                                    : 1 920 pixels
Height                                   : 824 pixels
Display aspect ratio                     : 2.35:1
Frame rate mode                          : Constant
Frame rate                               : 24.000 FPS
Color space                              : YUV
Chroma subsampling                       : 4:2:0
Bit depth                                : 8 bits
Scan type                                : Progressive
Bits/(Pixel*Frame)                       : 0.225
Stream size                              : 7.16 GiB (94%)
Writing library                          : x264 core 133 r2334 a3ac64b
Encoding settings                        : cabac=1 / ref=5 / deblock=1:-1:-1 / analyse=0x3:0x113 / me=umh / subme=7 / psy=1 / psy_rd=1.00:0.00 / mixed_ref=1 / me_range=16 / chroma_me=1 / trellis=1 / 8x8dct=1 / cqm=0 / deadzone=21,11 / fast_pskip=1 / chroma_qp_offset=-2 / threads=12 / lookahead_threads=2 / sliced_threads=0 / nr=0 / decimate=1 / interlaced=0 / bluray_compat=0 / constrained_intra=0 / bframes=3 / b_pyramid=2 / b_adapt=2 / b_bias=0 / direct=3 / weightb=1 / open_gop=0 / weightp=2 / keyint=250 / keyint_min=24 / scenecut=40 / intra_refresh=0 / rc_lookahead=40 / rc=2pass / mbtree=1 / bitrate=8535 / ratetol=1.0 / qcomp=0.60 / qpmin=0 / qpmax=69 / qpstep=4 / cplxblur=20.0 / qblur=0.5 / vbv_maxrate=50000 / vbv_bufsize=50000 / nal_hrd=none / ip_ratio=1.40 / aq=1:1.00
Language                                 : Chinese
Default                                  : Yes
Forced                                   : No

Audio
ID                                       : 2
Format                                   : AC-3
Format/Info                              : Audio Coding 3
Codec ID                                 : A_AC3
Duration                                 : 2 h 2 min
Bit rate mode                            : Constant
Bit rate                                 : 384 kb/s
Channel(s)                               : 2 channels
Channel positions                        : Front: L R
Sampling rate                            : 48.0 kHz
Frame rate                               : 31.250 FPS (1536 SPF)
Bit depth                                : 16 bits
Compression mode                         : Lossy
Stream size                              : 337 MiB (4%)
Language                                 : Chinese
Service kind                             : Complete Main
Default                                  : Yes
Forced                                   : No

Text
ID                                       : 3
Format                                   : UTF-8
Codec ID                                 : S_TEXT/UTF8
Codec ID/Info                            : UTF-8 Plain Text
Language                                 : English
Default                                  : Yes
Forced                                   : No




磁力下载:magnet:?xt=urn:btih:D780CA85DC4714F7D7499EAE6BC2088972DA49A1
Finding.Mr.Right.2013.1080p.BluRay.X264-aBD[btyuan.com].torrent
最新回复 (0)
全部楼主

你可以在 登录 or 注册 后,对此帖发表评论!

返回