奇幻夜 Tales.From.The.Dark.1.2013.1080p.BluRay.X264-aBD 7.6GB 2013 香港 恐怖 BD-1080P

admin 3月前 9

Tales.From.The.Dark.1.2013.1080p.BluRay.X264-aBD

◎译  名 李碧华鬼魅系列:奇幻夜/奇幻夜

◎片  名 李碧華鬼魅系列:奇幻夜

◎年  代 2013

◎产  地 香港

◎类  别 恐怖

◎语  言 粤语

◎上映日期 2013-08-08(香港)

◎IMDb评分  5.6/10 from 298 users

◎IMDb链接  http://www.imdb.com/title/tt3105008/

◎豆瓣评分 6.6/10 from 13,767 users

◎豆瓣链接 https://movie.douban.com/subject/22759752/

◎ http://www.btbtt.co 

◎片  长 90分钟

◎导  演 陈嘉上 Gordon Chan / 刘国昌 Lawrence Ah Mon / 泰迪·罗宾 Teddy Robin

◎主  演 陈法拉 Fala Chen

      林家栋 Ka Tung Lam

      泰迪·罗宾 Teddy Robin

      莫绮雯 Aliza Mo

      陈耀荣

      岑嘉其

      尹扬明 Yeung Ming Wan

      关楚耀 Kelvin Kwan Chor-yiu

      张国强 Kwok Keung Cheung

      潭淇淇 Kiki Tam


◎简  介


  《枕妖》在一次蛮不讲理的吵架过后,男友阮浩康(林家栋 饰)下落不明。失落的邹静怡(陈法拉 饰)懊恼不已,遍寻不见男友踪影,导致夜晚失眠,白天精神恍惚。为求睡眠,她从杂货铺买来一个药枕,谁知在睡上好觉之余,诡异的梦境也悄然而至;《迷藏》某座小学即将拆除,适逢好友Ceci即将生日,当年同在该校求学的肥强(陈耀荣 饰)等好友决定返回学校庆祝一番。可是他们没有听从校工陈伯(黎汉持 饰)的劝导在天黑前离开,甚至在漆黑的校舍里玩起了捉鬼游戏。不知不觉间,另外有“朋友”加入他们中间;《黑伞》落魄港府,泥泞湿漉,七月十四,人鬼同途。惨白的巷尾,走来身形佝偻的林伯(泰迪罗宾 饰),一路行走,一路感慨,人心凋零的年代,惟愿众生多多行善。不信鬼神和因果,作践了生前身后业。他知难而上,尽力行善。直至遇到站街北姑(莫绮雯 饰),一切骤变。


Video
ID                                       : 1
Format                                   : AVC
Format/Info                              : Advanced Video Codec
Format profile                           : High@L4.1
Format settings                          : CABAC / 4 Ref Frames
Format settings, CABAC                   : Yes
Format settings, ReFrames                : 4 frames
Codec ID                                 : V_MPEG4/ISO/AVC
Duration                                 : 1 h 52 min
Bit rate                                 : 9 063 kb/s
Width                                    : 1 920 pixels
Height                                   : 1 080 pixels
Display aspect ratio                     : 16:9
Frame rate mode                          : Constant
Frame rate                               : 24.000 FPS
Color space                              : YUV
Chroma subsampling                       : 4:2:0
Bit depth                                : 8 bits
Scan type                                : Progressive
Bits/(Pixel*Frame)                       : 0.182
Stream size                              : 6.99 GiB (91%)
Writing library                          : x264 core 133 r2334 a3ac64b
Encoding settings                        : cabac=1 / ref=4 / deblock=1:-1:-1 / analyse=0x3:0x113 / me=umh / subme=7 / psy=1 / psy_rd=1.00:0.00 / mixed_ref=1 / me_range=16 / chroma_me=1 / trellis=1 / 8x8dct=1 / cqm=0 / deadzone=21,11 / fast_pskip=1 / chroma_qp_offset=-2 / threads=12 / lookahead_threads=2 / sliced_threads=0 / nr=0 / decimate=1 / interlaced=0 / bluray_compat=0 / constrained_intra=0 / bframes=3 / b_pyramid=2 / b_adapt=2 / b_bias=0 / direct=3 / weightb=1 / open_gop=0 / weightp=2 / keyint=250 / keyint_min=24 / scenecut=40 / intra_refresh=0 / rc_lookahead=40 / rc=2pass / mbtree=1 / bitrate=9063 / ratetol=1.0 / qcomp=0.60 / qpmin=0 / qpmax=69 / qpstep=4 / cplxblur=20.0 / qblur=0.5 / vbv_maxrate=50000 / vbv_bufsize=50000 / nal_hrd=none / ip_ratio=1.40 / aq=1:1.00
Language                                 : Chinese
Default                                  : Yes
Forced                                   : No

Audio
ID                                       : 2
Format                                   : AC-3
Format/Info                              : Audio Coding 3
Codec ID                                 : A_AC3
Duration                                 : 1 h 52 min
Bit rate mode                            : Constant
Bit rate                                 : 640 kb/s
Channel(s)                               : 6 channels
Channel positions                        : Front: L C R, Side: L R, LFE
Sampling rate                            : 48.0 kHz
Frame rate                               : 31.250 FPS (1536 SPF)
Bit depth                                : 16 bits
Compression mode                         : Lossy
Stream size                              : 516 MiB (7%)
Language                                 : Chinese
Service kind                             : Complete Main
Default                                  : Yes
Forced                                   : No

Text
ID                                       : 3
Format                                   : UTF-8
Codec ID                                 : S_TEXT/UTF8
Codec ID/Info                            : UTF-8 Plain Text
Language                                 : English
Default                                  : Yes
Forced                                   : No




磁力下载:magnet:?xt=urn:btih:B7BAF383EE773452BFCF4E247FCEF9AFF9FA1AC0
Tales.From.The.Dark.1.2013.1080p.BluRay.X264-aBD[btyuan.com].torrent
最新回复 (0)
全部楼主

你可以在 登录 or 注册 后,对此帖发表评论!

返回