盲探 Blind.Detective.2013.1080p.BluRay.X264-aBD 7.94GB 2013 香港 犯罪 BD-1080P

admin 3月前 4

Blind.Detective.2013.1080p.BluRay.X264-aBD

◎译  名 BlindDetective

◎片  名 盲探

◎年  代 2013

◎产  地 中国大陆/香港

◎类  别 喜剧/爱情/悬疑/惊悚/犯罪

◎语  言 粤语/汉语普通话

◎上映日期 2013-05-19(戛纳电影节)/2013-07-04(中国大陆)/2013-07-04(香港)

◎IMDb评分  6.5/10 from 2,427 users

◎IMDb链接  http://www.imdb.com/title/tt2332707/

◎豆瓣评分 7.1/10 from 135,736 users

◎豆瓣链接 https://movie.douban.com/subject/6872273/

◎ http://www.btbtt.co 

◎片  长 129分钟

◎导  演 杜琪峰 Johnnie To

◎主  演 刘德华 Andy Lau

      郑秀文 Sammi Cheng

      郭涛 Tao Guo

      高圆圆 Yuanyuan Gao

      王子义 Zi-yi Wang

      郎月婷 Yueting Lang

      卢海鹏 Hoi-Pang Lo

      黄文慧 Man-Wai Wong

      林雪 Suet Lam

      姜皓文 Philip Keung Ho-Man


◎简  介


  曾是“O记”杰出探员的庄士敦(刘德华 饰),四年前因某起案件双目失明,而今眼前一片漆黑的他仍乐此不疲捡起沉疴多年且悬而未决的无头之案调查,在给受害者讨回公道的同时赢得丰厚的悬红报酬。他判案手法独特,擅长在头脑中原原本本还原当事人所处的场景和持有的心情来追查线索。在追查“通渠水伤人事件”疑犯的过程中,庄偶然结识当年“O记”好哥们司徒法宝(郭涛 饰)的下属何家彤(郑秀文 饰)。何虽然办案经验不足,但身手了得,关键时刻救下了正处在危急关头的庄。她对这位名震一时的“破案之神”佩服得五体投地,因此请求庄Sir接手帮忙调查许多年前失踪的好友小敏的下落。

  看在百万赏金的份上,庄点头应允。在短短十天内,庄Sir和何家彤同时周旋在几宗案件之间,每起案件的真相交替浮出水面,而他们彼此的心也在生死考验的过程中渐渐拉近……


◎获奖情况


  第50届台北金马影展  (2013)

  金马奖 最佳女主角(提名) 郑秀文


  第33届香港电影金像奖  (2014)

  最佳编剧(提名) 余曦 / 韦家辉 / 陈伟斌 / 游乃海

  最佳女主角(提名) 郑秀文

  最佳原创电影歌曲(提名) 刘德华 / 郑秀文


  第14届华语电影传媒大奖  (2014)

  最佳女主角(提名) 郑秀文

  最佳编剧(提名) 余曦 / 韦家辉 / 陈伟斌 / 杜祈知 / 游乃海


  第4届豆瓣电影鑫像奖  (2014)

  鑫豆单元 最佳影片(华语)(提名)

  鑫豆单元 最佳男演员(华语)(提名) 刘德华

  鑫豆单元 最佳女演员(华语)(提名) 郑秀文

  鑫豆单元 最佳喜剧片(提名)

  鑫豆单元 最佳爱情片(提名)


Video
ID                                       : 1
Format                                   : AVC
Format/Info                              : Advanced Video Codec
Format profile                           : High@L4.1
Format settings                          : CABAC / 5 Ref Frames
Format settings, CABAC                   : Yes
Format settings, ReFrames                : 5 frames
Codec ID                                 : V_MPEG4/ISO/AVC
Duration                                 : 2 h 9 min
Bit rate                                 : 8 125 kb/s
Width                                    : 1 920 pixels
Height                                   : 808 pixels
Display aspect ratio                     : 2.40:1
Frame rate mode                          : Constant
Frame rate                               : 24.000 FPS
Color space                              : YUV
Chroma subsampling                       : 4:2:0
Bit depth                                : 8 bits
Scan type                                : Progressive
Bits/(Pixel*Frame)                       : 0.218
Stream size                              : 7.20 GiB (91%)
Writing library                          : x264 core 133 r2334 a3ac64b
Encoding settings                        : cabac=1 / ref=5 / deblock=1:-1:-1 / analyse=0x3:0x113 / me=umh / subme=7 / psy=1 / psy_rd=1.00:0.00 / mixed_ref=1 / me_range=16 / chroma_me=1 / trellis=1 / 8x8dct=1 / cqm=0 / deadzone=21,11 / fast_pskip=1 / chroma_qp_offset=-2 / threads=12 / lookahead_threads=2 / sliced_threads=0 / nr=0 / decimate=1 / interlaced=0 / bluray_compat=0 / constrained_intra=0 / bframes=3 / b_pyramid=2 / b_adapt=2 / b_bias=0 / direct=3 / weightb=1 / open_gop=0 / weightp=2 / keyint=250 / keyint_min=24 / scenecut=40 / intra_refresh=0 / rc_lookahead=40 / rc=2pass / mbtree=1 / bitrate=8125 / ratetol=1.0 / qcomp=0.60 / qpmin=0 / qpmax=69 / qpstep=4 / cplxblur=20.0 / qblur=0.5 / vbv_maxrate=50000 / vbv_bufsize=50000 / nal_hrd=none / ip_ratio=1.40 / aq=1:1.00
Language                                 : Chinese
Default                                  : Yes
Forced                                   : No

Audio
ID                                       : 2
Format                                   : AC-3
Format/Info                              : Audio Coding 3
Codec ID                                 : A_AC3
Duration                                 : 2 h 9 min
Bit rate mode                            : Constant
Bit rate                                 : 640 kb/s
Channel(s)                               : 6 channels
Channel positions                        : Front: L C R, Side: L R, LFE
Sampling rate                            : 48.0 kHz
Frame rate                               : 31.250 FPS (1536 SPF)
Bit depth                                : 16 bits
Compression mode                         : Lossy
Stream size                              : 593 MiB (7%)
Language                                 : Chinese
Service kind                             : Complete Main
Default                                  : Yes
Forced                                   : No

Text
ID                                       : 3
Format                                   : UTF-8
Codec ID                                 : S_TEXT/UTF8
Codec ID/Info                            : UTF-8 Plain Text
Language                                 : English
Default                                  : Yes
Forced                                   : No



磁力下载:magnet:?xt=urn:btih:6414FBEBB0755AD14509D3EED143D8351160CF4D
Blind.Detective.2013.1080p.BluRay.X264-aBD[btyuan.com].torrent
最新回复 (0)
全部楼主

你可以在 登录 or 注册 后,对此帖发表评论!

返回