窃听风云3 Overheard.3.2014.1080p.BluRay.X264-aBD 7.92GB 2014 香港 犯罪 BD-1080P

admin 3月前 10

Overheard.3.2014.1080p.BluRay.X264-aBD

◎译  名 Overheard3

◎片  名 窃听风云3

◎年  代 2014

◎产  地 香港/中国大陆

◎类  别 动作/犯罪/悬疑/惊悚

◎语  言 汉语普通话/粤语

◎上映日期 2014-05-29(中国大陆)/2014-06-05(香港)

◎IMDb评分  6.1/10 from 809 users

◎IMDb链接  http://www.imdb.com/title/tt3121442/

◎豆瓣评分 6.2/10 from 106,406 users

◎豆瓣链接 https://movie.douban.com/subject/10726941/

◎ http://www.btbtt.co 

◎片  长 130分钟(中国大陆)/131分钟(香港)

◎导  演 麦兆辉 Alan Mak / 庄文强 Felix Chong

◎主  演 刘青云 Sean Lau

      古天乐 Louis Koo

      吴彦祖 Daniel Wu

      周迅 Xun Zhou

      叶璇 Michelle Ye

      方中信 Alex Fong

      曾江 Kenneth Tsang

      吴孟达 Man Tat Ng

      黄磊 Lei Huang

      林家栋 Ka Tung Lam

      林嘉华 Dominic Lam

      欧锦棠 Stephen Au

      郭峰 Fung Kwok

      罗兰 Lan Law

      骆应钧 Ying Kwan Lok

      黄奕 Yi Huang

      钱嘉乐 Kar Lok Chin

      谷德昭 Vincent Kok


◎简  介


  本片讲述了香港新界围村陆氏家族在房产开发交易黑幕后的故事。故事开始于村民罗永就(古天乐 饰)醉酒撞死了异姓兄弟陆永远(钱嘉乐 饰),陆永远之妻月华(周迅 饰)从此与他势不两立。罗永就5年后出狱,发现陆氏家族大家长陆瀚涛(曾江 饰)和其女陆永瑜(叶璇 饰),以及女婿(黄磊 饰)已经坐拥新界最大房产公司,而陆家兄弟陆金强(刘青云 饰)、陆永富(方中信 饰)等人则疯狂扩张势力。不久香港房产巨鳄邀请罗永就“共商大事”。同时,神秘人阿祖(吴彦祖 饰)透露给月华一个通过窃听得到的秘密消息,他告诉月华要想在这场欺天阴谋中复仇,就必须按照他的指示去做…… 于是几方势力都开始暗自行动。

  本片是《窃听风云》系列的第三部,但是除了“窃听”这一核心创意外,故事内容与前两部无关。


◎获奖情况


  第34届香港电影金像奖  (2015)

  最佳电影(提名) 尔冬升 / 黄斌

  最佳导演(提名) 庄文强 / 麦兆辉

  最佳编剧 庄文强 / 麦兆辉

  最佳男主角 刘青云

  最佳男配角 曾江

  最佳男配角(提名) 方中信

  最佳摄影(提名) 潘耀明

  最佳剪接(提名)

  最佳美术指导(提名)

  最佳服装造型设计(提名)

  最佳音响效果(提名)


  第9届亚洲电影大奖  (2015)

  最佳男主角(提名) 刘青云


  第15届华语电影传媒大奖  (2015)

  观众票选最受瞩目电影(提名)


Video
ID                                       : 1
Format                                   : AVC
Format/Info                              : Advanced Video Codec
Format profile                           : High@L4.1
Format settings                          : CABAC / 5 Ref Frames
Format settings, CABAC                   : Yes
Format settings, ReFrames                : 5 frames
Codec ID                                 : V_MPEG4/ISO/AVC
Duration                                 : 2 h 11 min
Bit rate                                 : 8 176 kb/s
Width                                    : 1 920 pixels
Height                                   : 816 pixels
Display aspect ratio                     : 2.35:1
Frame rate mode                          : Constant
Frame rate                               : 24.000 FPS
Color space                              : YUV
Chroma subsampling                       : 4:2:0
Bit depth                                : 8 bits
Scan type                                : Progressive
Bits/(Pixel*Frame)                       : 0.217
Stream size                              : 7.35 GiB (93%)
Writing library                          : x264 core 142 r2479 dd79a61
Encoding settings                        : cabac=1 / ref=5 / deblock=1:-1:-1 / analyse=0x3:0x113 / me=umh / subme=7 / psy=1 / psy_rd=1.00:0.00 / mixed_ref=1 / me_range=16 / chroma_me=1 / trellis=1 / 8x8dct=1 / cqm=0 / deadzone=21,11 / fast_pskip=1 / chroma_qp_offset=-2 / threads=12 / lookahead_threads=2 / sliced_threads=0 / nr=0 / decimate=1 / interlaced=0 / bluray_compat=0 / constrained_intra=0 / bframes=3 / b_pyramid=2 / b_adapt=2 / b_bias=0 / direct=3 / weightb=1 / open_gop=0 / weightp=2 / keyint=250 / keyint_min=24 / scenecut=40 / intra_refresh=0 / rc_lookahead=40 / rc=2pass / mbtree=1 / bitrate=8176 / ratetol=1.0 / qcomp=0.60 / qpmin=0 / qpmax=69 / qpstep=4 / cplxblur=20.0 / qblur=0.5 / vbv_maxrate=50000 / vbv_bufsize=50000 / nal_hrd=none / filler=0 / ip_ratio=1.40 / aq=1:1.00
Language                                 : Chinese
Default                                  : Yes
Forced                                   : No

Audio
ID                                       : 2
Format                                   : AC-3
Format/Info                              : Audio Coding 3
Codec ID                                 : A_AC3
Duration                                 : 2 h 11 min
Bit rate mode                            : Constant
Bit rate                                 : 448 kb/s
Channel(s)                               : 6 channels
Channel positions                        : Front: L C R, Side: L R, LFE
Sampling rate                            : 48.0 kHz
Frame rate                               : 31.250 FPS (1536 SPF)
Bit depth                                : 16 bits
Compression mode                         : Lossy
Delay relative to video                  : 2 s 0 ms
Stream size                              : 422 MiB (5%)
Language                                 : Chinese
Service kind                             : Complete Main
Default                                  : Yes
Forced                                   : No

Text
ID                                       : 3
Format                                   : UTF-8
Codec ID                                 : S_TEXT/UTF8
Codec ID/Info                            : UTF-8 Plain Text
Language                                 : English
Default                                  : Yes
Forced                                   : No



磁力下载:magnet:?xt=urn:btih:27C2EB469178399831B52F09008AF802C4C01CA3
Overheard.3.2014.1080p.BluRay.X264-aBD[btyuan.com].torrent
最新回复 (0)
全部楼主

你可以在 登录 or 注册 后,对此帖发表评论!

返回