激战:勇者不败 Unbeatable.2013.1080p.BluRay.x264-aBD 7.94GB 2013 香港 动作 BD-1080P

admin 3月前 4

Unbeatable.2013.1080p.BluRay.x264-aBD

◎译  名 激战/激战:勇者不败(台)/激战MMA

◎片  名 激戰

◎年  代 2013

◎产  地 香港/中国大陆

◎类  别 剧情/动作/运动

◎语  言 粤语/汉语普通话

◎上映日期 2013-06-18(上海国际电影节)/2013-08-15(香港)/2013-08-16(中国大陆)

◎IMDb评分  7.3/10 from 2,340 users

◎IMDb链接  http://www.imdb.com/title/tt3003668/

◎豆瓣评分 7.8/10 from 112,711 users

◎豆瓣链接 https://movie.douban.com/subject/20388223/

◎ http://www.btbtt.co 

◎片  长 121分钟(中国大陆)/116分钟(香港)

◎导  演 林超贤 Dante Lam

◎主  演 张家辉 Nick Cheung

      彭于晏 Eddie Peng

      李馨巧 Crystal Lee

      梅婷 Ting Mei

      李菲儿 Li Feier

      安志杰 Andy On

      高捷 Jack Kao

      姜皓文 Philip Keung Ho-Man

      刘畊宏 Will Liu

      王宝强 Baoqiang Wang


◎简  介


  过气香港拳王程辉(张家辉 饰),在拳坛没落后,沉迷赌博,负债累累,为躲避追债人,逃亡澳门。在合租房中,程辉遇到了一对母女,这名母亲(梅婷 饰),患有精神病,小女孩(李馨巧 饰)不但要上学还要照顾妈妈。程辉和小女孩很投缘,两人时常扮成小动物,排演小品,逗小女孩的妈妈开心。

  与此同时,富二代林思齐(彭于晏 饰)遭遇家庭变故,他的父亲(高捷 饰)生意失败,变得一无所有,整日在酒吧糜烂。为了鼓励落魄的父亲重新开始生活,林思齐报名参加了MMA。为此,他在一家拳击俱乐部报名,在这里,他认识了正在俱乐部打工的程辉,并拜他为师,学习拳击。

  经过几个月学习,林思齐在MMA中连胜几场,成为新拳王。随即,又遭遇了另一位高手(安志杰 饰)的挑战,林思齐负伤退赛。同时,追债人找到程辉,打斗中,不小心伤害了梅婷母女。为此,程辉深感内疚,不想再连累别人,便开始重新训练综合格斗技能,希望在MMA中赢得比赛,得到奖金偿还赌债。

  在MMA中,程辉以四十多岁的高龄挑战拳击,不被人看好。而他遭遇的对手,正是打败徒弟林思齐的新拳王安志杰……


◎获奖情况


  第50届台北金马影展  (2013)

  金马奖 最佳男主角(提名) 张家辉

  金马奖 最佳男配角(提名) 彭于晏

  金马奖 最佳女配角(提名) 李馨巧

  金马奖 最佳动作设计(提名) 凌志华

  金马奖 最佳剪辑(提名) 钟炜钊

  金马奖 最佳音效(提名) 郑颖园


  第33届香港电影金像奖  (2014)

  最佳电影(提名)

  最佳导演(提名) 林超贤

  最佳编剧(提名) 吴炜伦 / 冯志丰 / 林超贤

  最佳男主角 张家辉

  最佳男配角(提名) 彭于晏

  最佳女配角(提名) 李馨巧

  最佳摄影(提名) 谢忠道

  最佳剪接(提名) 钟炜钊

  最佳动作设计(提名) 凌志华

  最佳原创电影音乐(提名) 黎允文

  最佳音响效果(提名) 郑颖园


  第16届上海国际电影节  (2013)

  金爵奖 最佳影片(提名) 林超贤

  金爵奖 最佳男演员 张家辉

  金爵奖 最佳女演员 李馨巧


  第14届华语电影传媒大奖  (2014)

  观众票选最受瞩目表现(提名) 彭于晏

  最佳导演(提名) 林超贤

  最佳男主角 张家辉

  最佳女配角(提名) 李馨巧


  第21届北京大学生电影节  (2014)

  最佳影片奖(提名)


  第4届豆瓣电影鑫像奖  (2014)

  鑫豆单元 最佳影片(华语)(提名)

  鑫豆单元 最佳导演(华语)(提名) 林超贤

  鑫豆单元 最佳男演员(华语) 张家辉

  鑫豆单元 最佳女演员(华语)(提名) 李馨巧


Video
ID                                       : 1
Format                                   : AVC
Format/Info                              : Advanced Video Codec
Format profile                           : High@L4.1
Format settings                          : CABAC / 5 Ref Frames
Format settings, CABAC                   : Yes
Format settings, ReFrames                : 5 frames
Codec ID                                 : V_MPEG4/ISO/AVC
Duration                                 : 1 h 56 min
Bit rate                                 : 9 147 kb/s
Width                                    : 1 920 pixels
Height                                   : 808 pixels
Display aspect ratio                     : 2.40:1
Frame rate mode                          : Constant
Frame rate                               : 24.000 FPS
Color space                              : YUV
Chroma subsampling                       : 4:2:0
Bit depth                                : 8 bits
Scan type                                : Progressive
Bits/(Pixel*Frame)                       : 0.246
Stream size                              : 7.26 GiB (91%)
Writing library                          : x264 core 144 r2525 40bb568
Encoding settings                        : cabac=1 / ref=5 / deblock=1:-1:-1 / analyse=0x3:0x113 / me=umh / subme=7 / psy=1 / psy_rd=1.00:0.00 / mixed_ref=1 / me_range=16 / chroma_me=1 / trellis=1 / 8x8dct=1 / cqm=0 / deadzone=21,11 / fast_pskip=1 / chroma_qp_offset=-2 / threads=12 / lookahead_threads=2 / sliced_threads=0 / nr=0 / decimate=1 / interlaced=0 / bluray_compat=0 / constrained_intra=0 / bframes=3 / b_pyramid=2 / b_adapt=2 / b_bias=0 / direct=3 / weightb=1 / open_gop=0 / weightp=2 / keyint=250 / keyint_min=24 / scenecut=40 / intra_refresh=0 / rc_lookahead=40 / rc=2pass / mbtree=1 / bitrate=9147 / ratetol=1.0 / qcomp=0.60 / qpmin=0 / qpmax=69 / qpstep=4 / cplxblur=20.0 / qblur=0.5 / vbv_maxrate=50000 / vbv_bufsize=50000 / nal_hrd=none / filler=0 / ip_ratio=1.40 / aq=1:1.00
Language                                 : Chinese
Default                                  : Yes
Forced                                   : No

Audio
ID                                       : 2
Format                                   : AC-3
Format/Info                              : Audio Coding 3
Codec ID                                 : A_AC3
Duration                                 : 1 h 56 min
Bit rate mode                            : Constant
Bit rate                                 : 640 kb/s
Channel(s)                               : 6 channels
Channel positions                        : Front: L C R, Side: L R, LFE
Sampling rate                            : 48.0 kHz
Frame rate                               : 31.250 FPS (1536 SPF)
Bit depth                                : 16 bits
Compression mode                         : Lossy
Delay relative to video                  : 1 s 0 ms
Stream size                              : 531 MiB (7%)
Language                                 : Chinese
Service kind                             : Complete Main
Default                                  : Yes
Forced                                   : No

Text
ID                                       : 3
Format                                   : UTF-8
Codec ID                                 : S_TEXT/UTF8
Codec ID/Info                            : UTF-8 Plain Text
Language                                 : English
Default                                  : Yes
Forced                                   : No




磁力下载:magnet:?xt=urn:btih:89ED5242CDD47D0220987B6F705583DE61F238F8
Unbeatable.2013.1080p.BluRay.x264-aBD[btyuan.com].torrent
最新回复 (0)
全部楼主

你可以在 登录 or 注册 后,对此帖发表评论!

返回